流氓兔214
一代宗师

[2023] [法国] [剧情] [有水印] [BT下载][欲望飞扬][WebDL-MKV/4.41GB][中字][1080P][法国2023最新超大尺度剧情]

-->

海报





译  名 欲望飞扬/欲望俱乐部(台)/欲望舞场/吾欲吾求
片  名 My Sole Desire
年  代 2023
国  家 法国
类  别 剧情/爱情
语  言 法语
字  幕 中简/中繁
评  分 6.7/10 from 1,269 users
链  接 https://movie.douban.com/subject/35479168
文件大小 4.41 GB
片  长 118 Min
导  演 露西·波尔图 Lucie Borleteau
主  演 琪塔·昂罗 Zita Hanrot
     路易丝·舍维约特 Louise Chevillotte
     劳尔·贾皮科尼 Laure Giappiconi
     佩德罗·卡萨布兰科 Pedro Casablanc
     图蔻·波圭 Tokou Bogui
     西米·米拉迪 Sieme Miladi
     蒂莫西·罗巴特 Thimotee Robart
     西潘·莫拉迪安 Sipan Mouradian
     梅尔维尔·珀波 Melvil Poupaud
     席琳·菲雷尔 Celine Fuhrer
     尤利娅·阿碧丝 Yuliya Abiss

简介

  故事围绕着一位年轻女子展开,她有一天进入了一家名为“欲望飞扬”的脱衣舞俱乐部。她相信自己已经找到了一个爱情无法触及的地方,在那里,女人被称为女人,在那里她可以肆无忌惮地摆弄自己的身体。但更多的惊喜还在等着她……

Video
Format                         : AVC
Format/Info                    : Advanced Video Codec
Format profile                 : High@L4
Format settings                : CABAC / 4 Ref Frames
Format settings, CABAC         : Yes
Format settings, Reference fra : 4 frames
Codec ID                       : V_MPEG4/ISO/AVC
Duration                       : 1 h 57 min
Bit rate                       : 4 717 kb/s
Width                          : 1 920 pixels
Height                         : 800 pixels
Display aspect ratio           : 2.40:1
Frame rate mode                : Constant
Frame rate                     : 24.000 FPS
Color space                    : YUV
Chroma subsampling             : 4:2:0
Bit depth                      : 8 bits
Scan type                      : Progressive
Bits/(Pixel*Frame)             : 0.128
Stream size                    : 3.88 GiB (88%)
Color range                    : Limited
Color primaries                : BT.709
Transfer characteristics       : BT.709
Matrix coefficients            : BT.709

Audio
Format                         : E-AC-3
Format/Info                    : Enhanced AC-3
Commercial name                : Dolby Digital Plus
Codec ID                       : A_EAC3
Duration                       : 1 h 57 min
Bit rate mode                  : Constant
Bit rate                       : 640 kb/s
Channel(s)                     : 6 channels
Channel layout                 : L R C LFE Ls Rs
Sampling rate                  : 48.0 kHz
Frame rate                     : 31.250 FPS (1536 SPF)
Compression mode               : Lossy
Stream size                    : 539 MiB (12%)
Language                       : French
Service kind                   : Complete Main


截图







1 个附件 售价 大小 下载 时间

欲望飞扬.欲望俱乐部.torrent 0 金币 23.30K 20593 次 9天前

#1楼
发帖时间:2024-05-16 02:38:46   |   回复数:3
ALLEN820213
隐世仙人♂
感谢楼主分享 !!!
8天前 #2楼
ak147
隐世仙人♂
感谢大大分享
8天前 #3楼
popeye69
一代宗师
感谢楼主分享!
7天前 #4楼
游客组