mario5635
小有名气

[2011] [美国] [奇幻] [全集] [BT][冰与火之歌 权力游戏 第一季][全10集][英语/中英特效][BluRay/HEVC/AV3][1080P][MP4][DiaosMan]

-->

影片字幕:保留原盘英文字幕;特效字幕由老A制作,阿明精调;C-PT完美修改大金溢出问题!

双语对白取自freeland版的原创翻译,特此表示衷心感谢。关于freeland版不多说,这是绝对的专业冰火粉丝所做的字幕,其他特效及注释取自冰与火中文维基百科。



※※※※※※※ 影片信息 ※※※※※※※

【译   名】: 冰与火之歌:权力的游戏

【原   名】: Game of Thrones

【年   代】: 2011

【国   家】: 美国

【类   别】: Drama | Fantasy 

【语   言】: 英语

【首   播】: 2011年04月17日

【电 视 台】: HBO

【官   网】: http://www.hbo.com/game-of-thrones/index.html

【IMDB 评分】: 9.4/10 from 385,844 users 

【IMDB 链接】: http://www.imdb.com/title/tt0944947/

【集   数】: 10 集

【片   长】: 平均 60 分钟

【导   演】: Brian Kirk ... (3集 2011)

         Daniel Minahan ... (3集 2011)

         Alan Taylor ... (2集 2011)

         Timothy Van Patten ... (2集 2011)

【编   剧】: David Benioff ... (10集 2011)

         George R.R. Martin ... (10集 2011)

         D.B. Weiss ... (10集 2011)

【演   员】: Isaac Hempstead-Wright 饰演 Bran Stark (9集 2011) 

         Charles Dance 饰演 Tywin Lannister (8集 2011) 

         John Bradley 饰演 Samwell Tarly (7集 2011) 

         Ron Donachie 饰演 Ser Rodrik Cassel (5集 2011) 


【简   介】:


  《权力的游戏》这部电视剧将标志着正统史诗奇幻剧出现在电视网上这一里程碑时刻的到来。这部根据George R. R. Martin的系列畅销小说改编的影视剧,是由David Benioff(《特洛伊》的制片人)和D.B. Weiss(游戏《光晕》的编剧)担任制片。


  故事的整个世界与地球几乎相当,主要分为两片大陆。位于西面的是“日落国度”维斯特洛,面积约等于南美洲。位于东面的是一块面积、形状近似于亚欧大陆的陆地。


  故事的主线便发生在西方的形似不列颠岛的维斯特洛大陆上。由国王劳勃?拜拉席恩前往北地拜访他的好友:临冬城主暨北境统领艾德史塔克开始,渐渐展示了这片国度的全貌。单纯的国王,耿直的首相,各怀鬼胎的大臣,拥兵自重的四方诸侯,全国仅靠着一根细弦维系着表面的和平,而当弦断之时,国家再度陷入无尽的战乱之中。而更让人惊悚的:那些远古的传说和早已灭绝的生物,正重新回到这片土地。


幕后制作

* 从HBO预定该剧导航集到正式开播历时两年半。

* 首季基本预算为5000-6000万美元左右,平均每集500-600万。这还不包括大约1500万美元左右的宣传费用。

* HBO海外客户购买该剧的费用为每集250万美元,超过《黑道家族》50%,是HBO历史上海外销量最好的常规剧集--尽管该剧还没有正式开播!

* 剧组成员最多时达到583人。

* 电视剧拍摄过程中,临时演员最多的一天共使用了250人。

* 全剧一共拍摄了170天,其中133天在北爱尔兰首府贝尔法斯特拍摄(主要用于维斯特洛大陆的场景),37天在地中海岛国马耳他拍摄(主要用于多斯拉克场景)。两边同时拍了六个星期,然后所有人员集中到贝尔法斯特拍摄余下部分。贝尔法斯特的片场曾是电影《泰坦尼克》的拍摄地之一。

* 全剧有台词的角色共162人,17人为核心角色(名字在片头字幕中出现)。

* 道具组共准备了150套完整的盔甲。

* 道具组共准备了130顶头盔。

* 道具组大约有80人,其中包括服装设计师。

* 以《权力的游戏》为主题的餐饮车在纽约和洛杉矶街头停靠了10天,为慕名前来的群众提供「街头大餐」。这些餐饮车销售的美味佳肴全都来自书中的描述,包括:烤兔子、风味烤鸭、鹿肉、柠檬蛋糕等。该剧第一集中的「盛宴」吃的就是这些东西。

* HBO的宣传资料共绘制了六大家族的族谱图。但精装版的宣传资料印数很少,只提供给媒体同行,因此极为抢手。

* 首集中共有5个裸体女人(至少裸露了上半身)。

* 首集中共有4个斩首镜头,其中3个发生在片头字幕出现之前。

* 首集中共提到3次「凛冬将至」(Winter is coming),这句话是剧情核心。

* 首集中共有2个性爱镜头。

* 剧组更换了2名常规演员:扮演凯特琳·史塔克的演员和扮演丹妮莉斯·坦格利安的演员。

编码参数 - 

General

Complete name                    : D:\Game.of.Thrones.S01E10.2011.BluRay.1080p.HEVC.AC3.中英特效.mp4

Format                           : MPEG-4

Format profile                   : Base Media

Codec ID                         : isom

File size                        : 1 003 MiB

Duration                         : 55mn 17s

Overall bit rate                 : 2 536 Kbps

Encoded date                     : UTC 2017-03-25 01:28:39

Tagged date                      : UTC 2017-03-25 01:28:39


Video

ID                               : 1

Format                           : hev1

Codec ID                         : hev1

Duration                         : 52mn 37s

Bit rate mode                    : Variable

Bit rate                         : 2 393 Kbps

Maximum bit rate                 : 40.7 Mbps

Width                            : 1 920 pixels

Height                           : 1 080 pixels

Display aspect ratio             : 16:9

Frame rate mode                  : Constant

Frame rate                       : 23.976 fps

Bits/(Pixel*Frame)               : 0.048

Stream size                      : 901 MiB (90%)

Tagged date                      : UTC 2017-03-25 01:28:47


Audio

ID                               : 2

Format                           : AC-3

Format/Info                      : Audio Coding 3

Mode extension                   : CM (complete main)

Codec ID                         : ac-3

Duration                         : 55mn 17s

Bit rate mode                    : Constant

Bit rate                         : 256 Kbps

Maximum bit rate                 : 270 Kbps

Channel(s)                       : 6 channels

Channel positions                : Front: L C R, Side: L R, LFE

Sampling rate                    : 48.0 KHz

Bit depth                        : 16 bits

Compression mode                 : Lossy

Stream size                      : 101 MiB (10%)

Title                            : 英语

Language                         : English

Encoded date                     : UTC 2017-03-25 01:28:44

Tagged date                      : UTC 2017-03-25 01:28:47


◎视频截图



BT种子:迅雷、百度、115正在离线中,小水管上传,请诸位耐心下载

前一种子,音频问题已经修复,现在已经更新修复后种子。




1 个附件 售价 大小 下载 时间

冰与火之歌 权力的游戏 第一季 音频修复版.torrent 0 金币 34.69K 43817 次 2017-4-16

#1楼
发帖时间:2017-04-13 12:06:52   |   回复数:14
911degrees
隐世仙人♂
非常感谢,谢谢分享
2017-4-13 #2楼
alex952788
武林高手
感谢分享,请问这是重下洗版了,还是之前压制的重下发了下?我之前下过,免得重复了
2017-4-13 #3楼
chaosunny
武林高手
这版本看着很清楚,而且介绍这么详细,作者太用心了,虽然早已经看过了,但还是一定要下载保存,支持!
2017-4-13 #4楼
老虎
一代宗师
支持下,收藏用!
2017-4-13 #5楼
gllyh
武林高手
已下好两集...怎么音频不对的。。。
2017-4-14 #6楼
wxqjl007
一派掌门
音频不对
2017-4-15 #7楼
alex952788
武林高手
等待洗版。。。。
2017-4-21 #8楼
cycymmmm
武林高手
谢谢楼主分享,辛苦辛苦
2017-4-26 #9楼
老虎
一代宗师
尼玛!花了一个多月下来结果这季全部影音不同步,没一集拉下,顶你个铺盖(不是说楼主)~
2017-5-23 #10楼
king2k2
无名小卒
音频不对?现在好了嘛?
2017-5-28 #11楼
mario5635
小有名气
引用 老虎:

尼玛!花了一个多月下来结果这季全部影音不同步,没一集拉下,顶你个铺盖(不是说楼主)~

之前封装的时候,不知道和那一季的混了。有朋友发现后,我立即就重新封装,现在种子是修复后。我每一集都验了一遍。

2017-5-29 #12楼
hyyft
小有名气
感谢楼主分享
2017-8-13 #13楼
guyexing
武林高手
感谢分享资源!辛苦了。。。
2017-8-13 #14楼
飘逸晨曦
武林高手
太棒啦!感谢!
2017-8-23 #15楼
游客组