BILL36
隐世仙人♂

[2024] [大陆] [爱情] [WEB-1080P] 奔赴星辰的我们[全24集][国语配音/中文字幕].Embracing.the.Stars.Together.S01.2024.1080p.WEB-DL.H264

-->

完整标题:奔赴星辰的我们[全24集][国语配音/中文字幕].Embracing.the.Stars.Together.S01.2024.1080p.WEB-DL.H264.AAC-ZeroTV 14.35GB



◎标  题 奔赴星辰的我们
◎译  名 你才是我的男主角
◎年  代 2024
◎产  地 中国大陆
◎类  别 爱情
◎语  言 汉语普通话
◎IMDb链接 https://www.imdb.com/title//
◎豆瓣链接 https://movie.douban.com/subject/36391988/
◎导  演 巴晨旭 Chenxu Ba
◎演  员 刘家祎 Jiayi Liu
      吴芊盈 Qianying Wu
      代古拉
      潘麓宇 Luyu Pan
      时安 An Shi
      李佳佳 Jiajia Li
      沈博怀 Bohuai Shen
      王雅淇 Yaqi Wang
      丁榆 Tina Ding
      代佳莉

◎简  介
    讲述了少女卜涵鹿(吴芊盈 饰)一直相信自己拯救过世界,坚信姐姐被外星人掳走,为了救回姐姐一直孤单承受着周边人的误解,直到校霸林千与(刘家祎 饰)与一群朋友们的出现,才让她的生活不再孤独,也终究找到属于自己的男主角,谱写青春新篇章。

部分资源为软字幕,移动端推荐播放器:MxPlayer,nPlayer,infuse ,其他播放器请自行尝试。

部分资源为软字幕,电脑端推荐播放器:PotPlayer,完美解码,KMPLAYER,其他播放器请自行尝试。

##### MediaInfo ######
General
Complete name : 奔赴星辰的我们.Wow.Nice.Figure.Season.5.S01E01.2024.1080p.WEB-DL.H264.AAC-ZeroTV.mp4
Duration : 37 min 13 s
Overall bit rate : 2 388 kb/s

Video
ID : 1
Format : AVC
Format/Info : Advanced Video Codec
Format profile : High@L4
Format settings : CABAC / 3 Ref Frames
Format settings, CABAC : Yes
Format settings, Reference frames : 3 frames
Codec ID : avc1
Codec ID/Info : Advanced Video Coding
Duration : 37 min 13 s
Bit rate : 2 191 kb/s
Width : 1 920 pixels
Height : 1 080 pixels
Display aspect ratio : 16:9
Frame rate mode : Constant
Frame rate : 25.000 FPS
Color space : YUV
Chroma subsampling : 4:2:0
Bit depth : 8 bits
Scan type : Progressive
Bits/(Pixel*Frame) : 0.042
Stream size : 583 MiB (92%)
Color range : Limited
Color primaries : BT.709
Transfer characteristics : BT.709
Matrix coefficients : BT.709
Codec configuration box : avcC

Audio
ID : 2
Format : AAC LC
Format/Info : Advanced Audio Codec Low Complexity
Codec ID : mp4a-40-2
Duration : 37 min 13 s
Bit rate mode : Constant
Bit rate : 192 kb/s
Channel(s) : 2 channels
Channel layout : L R
Sampling rate : 44.1 kHz
Frame rate : 43.066 FPS (1024 SPF)
Compression mode : Lossy
Stream size : 50.6 MiB (8%)
Default : Yes
Alternate group : 1


点击图片可查看大图

软字幕无法在截图上展现,HDR版本/杜比视界版本截图会出现颜色异常,请使用支持的设备播放!



1 个附件 售价 大小 下载 时间

Embracing.the.Stars.Together.S01.2024.1080p.WEB-DL.H264.AAC-ZeroTV[1LOU.ME].torrent 0 金币 41.62K 259 次 1月前

#1楼
发帖时间:2024-03-01 22:59:12   |   回复数:0
游客组