Asuka601
隐世仙人♂

[更 早] [香港] [动作] [BD-1080P] 东方三侠[国语配音/中文字幕].The.Heroic.Trio.1993.V2.BluRay.1080p.AAC1.0.x264-DreamHD 2.71GB

-->

完整标题:东方三侠[国语配音/中文字幕].The.Heroic.Trio.1993.V2.BluRay.1080p.AAC1.0.x264-DreamHD 2.71GB



◎标  题 东方三侠
◎译  名 飞天侠女 / The Heroic Trio / Eastern Three Heroes
◎片  名 東方三俠
◎年  代 1993
◎产  地 中国香港
◎类  别 动作 / 奇幻 / 武侠
◎语  言 粤语 / 英语
◎上映日期 1993-02-12
◎IMDb评分 6.5/10 (3935人评价)
◎IMDb链接 https://www.imdb.com/title/tt0105619/
◎豆瓣评分 7.5/10 (54388人评价)
◎豆瓣链接 https://movie.douban.com/subject/1304091/
◎片  长 88 分钟
◎导  演 杜琪峰 Johnnie To
◎编  剧 邵丽琼 Sandy Shaw
◎演  员 梅艳芳 Anita Mui
      杨紫琼 Michelle Yeoh
      张曼玉 Maggie Cheung
      刘松仁 Damian Lau
      黄秋生 Anthony Wong Chau-Sang
      白石千 James Pax
      朱咪咪 Mimi Chu
      任世官 Shi-Kwan Yen
      秦沛 Paul Chun
      林迪安 Dion Lam
      曾健明 Kin-Ming Tsang
      王章宝 Cheung-Bo Wong
      姜皓文 Philip Keung Ho-Man
      陈卓欣 Chan Cheuk Yan
      阮兆祥 Louis Yuen
      徐韬 Tao Xu
      黄一飞 Yut Fei Wong
      李兆基 Siu-Kei Lee

◎简  介
    东东(梅艳芳 饰)与心靖(杨紫琼 饰)年幼时得到武林高手的收养,传授她们武功望她们能长大后行侠仗义。同是孤儿的两人情同姐妹。不料心靖在12岁时被抓走,从此失去音信。东东长大后下嫁了警官刘启文(刘松仁 饰),生下女儿后当上了贤妻良母。多年来她一直向家人隐瞒自己的身份,但 夫妻俩之间却因为这样变得疏远。   当年心靖被清朝宦官陈公公抓走,用毒液洗去了她记忆后利用她的好身手干着坏事。陈七(张曼玉 饰)也是公公的手下,生性不羁,她中毒并不深,记忆不久便恢复了。她跟东东一般富有正义感但视钱如命。三人在一次偷取婴儿的争斗中相遇了,但心中的正义感令她们本来对立的角色演变成一直的方向,对付危害大众生命的女勇士。

点击图片可查看大图

软字幕无法在截图上展现,HDR版本/杜比视界版本截图会出现颜色异常,请使用支持的设备播放!

##### MediaInfo ######
General
Complete name : The.Heroic.Trio.1993.V2.BluRay.1080p.iPad.AAC1.0.x264-DreamHD.mp4
Duration : 1 h 28 min
Overall bit rate : 4 389 kb/s

Video
ID : 1
Format : AVC
Format/Info : Advanced Video Codec
Format profile : [email protected]
Format settings : 5 Ref Frames
Format settings, CABAC : No
Format settings, Reference frames : 5 frames
Codec ID : avc1
Codec ID/Info : Advanced Video Coding
Duration : 1 h 28 min
Bit rate : 3 997 kb/s
Width : 1 920 pixels
Height : 1 080 pixels
Display aspect ratio : 16:9
Frame rate mode : Variable
Frame rate : 23.976 (24000/1001) FPS
Minimum frame rate : 23.974 FPS
Maximum frame rate : 23.981 FPS
Color space : YUV
Chroma subsampling : 4:2:0
Bit depth : 8 bits
Scan type : Progressive
Bits/(Pixel*Frame) : 0.080
Stream size : 2.46 GiB (91%)
Writing library : x264 core 164 r3100 ed0f7a6
Encoding settings : cabac=0 / ref=5 / deblock=0:0:0 / analyse=0x1:0x111 / me=hex / subme=8 / psy=1 / psy_rd=1.00:0.00 / mixed_ref=1 / me_range=16 / chroma_me=1 / trellis=2 / 8x8dct=0 / cqm=0 / deadzone=21,11 / fast_pskip=1 / chroma_qp_offset=-2 / threads=24 / lookahead_threads=4 / sliced_threads=0 / nr=0 / decimate=1 / interlaced=0 / bluray_compat=0 / constrained_intra=0 / bframes=3 / b_pyramid=2 / b_adapt=1 / b_bias=0 / direct=3 / weightb=0 / open_gop=0 / weightp=0 / keyint=240 / keyint_min=24 / scenecut=40 / intra_refresh=0 / rc_lookahead=50 / rc=2pass / mbtree=1 / bitrate=4000 / ratetol=1.0 / qcomp=0.60 / qpmin=0 / qpmax=69 / qpstep=4 / cplxblur=20.0 / qblur=0.5 / vbv_maxrate=800000 / vbv_bufsize=800000 / nal_hrd=none / filler=0 / ip_ratio=1.40 / aq=1:1.00
Encoded date : UTC 2024-04-21 11:10:04
Tagged date : UTC 2024-04-21 11:10:04
Color range : Limited
Color primaries : BT.709
Transfer characteristics : BT.709
Matrix coefficients : BT.709
Menus : 4
mdhd_Duration : 5297292
Codec configuration box : avcC

Audio #1
ID : 2
Format : AAC LC
Format/Info : Advanced Audio Codec Low Complexity
Codec ID : mp4a-40-2
Duration : 1 h 28 min
Source duration : 1 h 28 min
Bit rate mode : Constant
Bit rate : 192 kb/s
Channel(s) : 2 channels
Channel layout : L R
Sampling rate : 48.0 kHz
Frame rate : 46.875 FPS (1024 SPF)
Compression mode : Lossy
Stream size : 121 MiB (4%)
Source stream size : 121 MiB (4%)
Title : 单声道
Language : Chinese
Default : Yes
Alternate group : 1
Encoded date : UTC 2024-04-21 11:10:04
Tagged date : UTC 2024-04-21 11:10:04
Menus : 4

Audio #2
ID : 3
Format : AAC LC
Format/Info : Advanced Audio Codec Low Complexity
Codec ID : mp4a-40-2
Duration : 1 h 27 min
Source duration : 1 h 27 min
Bit rate mode : Constant
Nominal bit rate : 194 kb/s
Maximum bit rate : 194 kb/s
Channel(s) : 2 channels
Channel layout : L R
Sampling rate : 48.0 kHz
Frame rate : 46.875 FPS (1024 SPF)
Compression mode : Lossy
Source stream size : 121 MiB (4%)
Title : 单声道
Language : Chinese
Default : No
Alternate group : 1
Encoded date : UTC 2024-04-21 11:10:04
Tagged date : UTC 2024-04-21 11:10:04
Menus : 4

Menu
ID : 4
Format : Timed Text
Codec ID : text
Duration : 1 h 28 min
Language : English
Encoded date : UTC 2024-04-21 11:10:04
Tagged date : UTC 2024-04-21 11:10:04
Menu For : 1,2,3
00:00:00.000 : Chapter 1
00:05:05.055 : Chapter 2
00:11:24.726 : Chapter 3
00:14:42.757 : Chapter 4
00:20:12.002 : Chapter 5
00:24:04.610 : Chapter 6
00:30:25.449 : Chapter 7
00:36:50.667 : Chapter 8
00:41:43.459 : Chapter 9
00:48:48.384 : Chapter 10
00:53:20.406 : Chapter 11
00:58:42.811 : Chapter 12
01:03:32.434 : Chapter 13
01:08:04.122 : Chapter 14
01:12:52.660 : Chapter 15
01:18:18.444 : Chapter 16
01:25:00.721 : Chapter 17


部分资源为软字幕,移动端推荐播放器:MxPlayer,nPlayer,infuse ,其他播放器请自行尝试。

部分资源为软字幕,电脑端推荐播放器:PotPlayer,完美解码,KMPLAYER,其他播放器请自行尝试。

下载端推荐纯BT下载软件:qBittorrent,Bitcomet,uTorrent ,其他下载软件请自行尝试。不支持吸血迅雷。



1 个附件 售价 大小 下载 时间

The.Heroic.Trio.1993.V2.BluRay.1080p.AAC1.0.x264-DreamHD[1LOU.ME].torrent 0 金币 9.44K 1134 次 24天前

#1楼
发帖时间:2024-04-24 12:18:37   |   回复数:0
游客组