Asuka601
隐世仙人♂

[2021] [欧美] [剧情] [WEB-4K] 古驰家族[简繁英字幕].House.of.Gucci.2021.NOR.2160p.UHD.BluRay.x265.10bit.HDR.DTS-HD.MA.5.

-->

完整标题:古驰家族[简繁英字幕].House.of.Gucci.2021.NOR.2160p.UHD.BluRay.x265.10bit.HDR.DTS-HD.MA.5.1-SONYHD 18.72GB



◎标  题 古驰家族
◎译  名 GUCCI名门望族(港) / Gucci:豪门谋杀案(台) / 古驰之家 / 古驰王朝 / 古琦 / Gucci
◎片  名 House of Gucci
◎年  代 2021
◎产  地 美国 / 加拿大
◎类  别 剧情 / 犯罪
◎语  言 英语 / 意大利语 / 阿拉伯语 / 法语 / 日语
◎上映日期 2021-11-24(美国)
◎IMDb评分 6.6/10 (146756人评价)
◎IMDb链接 https://www.imdb.com/title/tt11214590/
◎豆瓣评分 6.3/10 (29649人评价)
◎豆瓣链接 https://movie.douban.com/subject/3078409/
◎片  长 158分钟
◎导  演 雷德利·斯科特 Ridley Scott
◎编  剧 贝基·琼斯顿 Becky Johnston
      罗伯托·本提维尼亚 Roberto Bentivegna
      Sara Gay Forden Sara Gay Forden
◎演  员  Lady Gaga
      亚当·德赖弗 Adam Driver
      阿尔·帕西诺 Al Pacino
      杰瑞米·艾恩斯 Jeremy Irons
      杰瑞德·莱托 Jared Leto
      杰克·休斯顿 Jack Huston
      萨尔玛·海耶克 Salma Hayek
      亚历克西雅·默里 Alexia Murray
      文森特·里奥特 Vincent Riotta
      加埃塔诺·布鲁诺 Gaetano Bruno
      卡米尔·科坦 Camille Cottin
      优素福·凯尔科尔 Youssef Kerkour
      利夫·卡内 Reeve Carney
      梅迪·内博 Mehdi Nebbou
      安德里亚·皮耶迪蒙特·博迪尼 Andrea Piedimonte Bodini
      彼得罗·拉古萨 Pietro Ragusa
      玛丽娜·奥奇奥诺 Marina Occhionero
      市川纯 Jun Ichikawa
      马达丽娜·珍娜 Madalina Ghenea
      尼古拉·加洛法洛 Nicola Garofalo
      彼得罗·培斯 Pietro Pace
      比安卡·纳皮 Bianca Nappi
      马里奥·欧普特 Mario Opinato
      凯瑟琳·沃克 Catherine Walker
      阿尔弗雷多·拜尔亚 Alfredo Pea
      Eric Alexander Eric Alexander
      洛里斯·洛迪 Loris Loddi
      卢卡·奇科瓦尼 Luca Chikovani
      安德烈亚·布鲁斯基 Andrea Bruschi
      米娅·麦戈文·扎伊尼 Mia McGovern Zaini
      爱德华·菲利波纳特 Edouard Philipponnat
      Daniele Monterosi

◎简  介
    本片围绕时尚品牌古琦(Gucci)的第三代接班人毛里奇奥·古琦(Maurizio Gucci)的故事展开,毛里奇奥是古琦创建人古琦欧·古琦(Guccio Gucci)的孙子,1995年被一个西西里岛的年轻人枪杀于米兰办公室的楼梯上,他的妻子Patrizia Gucci因策划杀夫一案而被判入狱29年。

点击图片可查看大图

软字幕无法在截图上展现,HDR版本/杜比视界版本截图会出现颜色异常,请使用支持的设备播放!

##### MediaInfo ######
General
Unique ID : 144795906632456020597195527880469461105 (0x6CEEAD5FA76DF9481B6D19B50BC53871)
Complete name : House.of.Gucci.2021.NOR.2160p.UHD.BluRay.x265.10bit.HDR.DTS-HD.MA.5.1-SONYHD.mkv
Duration : 2 h 37 min
Overall bit rate mode : Variable
Overall bit rate : 17.0 Mb/s

Video
ID : 1
Format : HEVC
Format/Info : High Efficiency Video Coding
Format profile : Main [email protected]@High
HDR format : SMPTE ST 2086, HDR10 compatible
Codec ID : V_MPEGH/ISO/HEVC
Duration : 2 h 37 min
Bit rate : 13.5 Mb/s
Width : 3 840 pixels
Height : 1 608 pixels
Display aspect ratio : 2.40:1
Frame rate mode : Constant
Frame rate : 23.976 (24000/1001) FPS
Color space : YUV
Chroma subsampling : 4:2:0
Bit depth : 10 bits
Bits/(Pixel*Frame) : 0.091
Stream size : 14.9 GiB (80%)
Writing library : x265 3.5g2b25c9ba0+45:[Windows][MSVC 1926][64 bit] Yuuki 10bit+8bit+12bit
Encoding settings : rc=crf / crf=20.0000 / qcomp=0.70 / qpstep=4 / stats-write=0 / stats-read=0 / vbv-maxrate=160000 / vbv-bufsize=160000 / vbv-init=0.9 / min-vbv-fullness=50.0 / max-vbv-fullness=80.0 / crf-max=0.0 / crf-min=0.0 / no-lossless / no-cu-lossless / aq-mode=3 / aq-strength=0.90 / cbqpoffs=0 / crqpoffs=0 / ipratio=1.40 / pbratio=1.30 / psy-rd=2.00 / psy-rdoq=2.00 / deblock=-3:-3 / ref=6 / limit-refs=1 / no-limit-modes / bframes=11 / b-adapt=2 / bframe-bias=0 / b-pyramid / b-intra / weightp / weightb / min-keyint=1 / max-keyint=240 / rc-lookahead=72 / gop-lookahead=0 / scenecut=40 / hist-scenecut=0 / radl=0 / max-cu-size=64 / min-cu-size=8 / me=3 / subme=6 / merange=48 / rdoq-level=2 / rd=4 / rdpenalty=0 / dynamic-rd=0.00 / no-rd-refine / ----- / no-cutree / no-sao / no-rect / no-amp / no-open-gop / wpp / no-pmode / no-pme / no-psnr / no-ssim / nr-intra=0 / nr-inter=0 / no-constrained-intra / no-strong-intra-smoothing / max-tu-size=32 / tu-inter-depth=4 / tu-intra-depth=4 / limit-tu=0 / qg-size=32 / qpmax=69 / qpmin=0 / ----- / cpuid=1049583 / frame-threads=5 / numa-pools=+ / log-level=2 / input-csp=1 / input-res=3840x1608 / interlace=0 / level-idc=51 / high-tier=1 / uhd-bd=0 / no-allow-non-conformance / repeat-headers / aud / no-hrd / info / hash=0 / no-temporal-layers / lookahead-slices=0 / no-splice / no-intra-refresh / no-ssim-rd / signhide / no-tskip / max-merge=5 / temporal-mvp / no-frame-dup / no-hme / analyze-src-pics / no-sao-non-deblock / selective-sao=0 / early-skip / rskip / no-fast-intra / no-tskip-fast / no-splitrd-skip / zone-count=0 / no-strict-cbr / no-rc-grain / no-const-vbv / sar=0 / overscan=0 / videoformat=5 / range=0 / colorprim=9 / transfer=16 / colormatrix=9 / chromaloc=0 / display-window=0 / master-display=G(13250,34500)B(7500,3000)R(34000,16000)WP(15635,16450)L(100000000,10) / cll=880,22 / min-luma=0 / max-luma=1023 / log2-max-poc-lsb=8 / vui-timing-info / vui-hrd-info / slices=1 / no-opt-qp-pps / no-opt-ref-list-length-pps / no-multi-pass-opt-rps / scenecut-bias=0.05 / hist-threshold=0.03 / no-opt-cu-delta-qp / no-aq-motion / hdr10 / hdr10-opt / no-dhdr10-opt / no-idr-recovery-sei / analysis-reuse-level=0 / analysis-save-reuse-level=0 / analysis-load-reuse-level=0 / scale-factor=0 / refine-intra=0 / refine-inter=0 / refine-mv=1 / refine-ctu-distortion=0 / no-limit-sao / ctu-info=0 / no-lowpass-dct / refine-analysis-type=0 / copy-pic=1 / max-ausize-factor=1.0 / no-dynamic-refine / no-single-sei / no-hevc-aq / no-svt / no-field / qp-adaptation-range=1.00 / scenecut-aware-qp=0conformance-window-offsets / right=0 / bottom=0 / decoder-max-rate=0 / no-vbv-live-multi-pass
Default : Yes
Forced : No
Color range : Limited
Color primaries : BT.2020
Transfer characteristics : PQ
Matrix coefficients : BT.2020 non-constant
Mastering display color primaries : Display P3
Mastering display luminance : min: 0.0010 cd/m2, max: 10000 cd/m2
Maximum Content Light Level : 880 cd/m2
Maximum Frame-Average Light Level : 22 cd/m2

Audio
ID : 2
ID in the original source medium : 4352 (0x1100)
Format : DTS XLL
Format/Info : Digital Theater Systems
Commercial name : DTS-HD Master Audio
Codec ID : A_DTS
Duration : 2 h 37 min
Bit rate mode : Variable
Bit rate : 3 374 kb/s
Channel(s) : 6 channels
Channel layout : C L R Ls Rs LFE
Sampling rate : 48.0 kHz
Frame rate : 93.750 FPS (512 SPF)
Bit depth : 24 bits
Compression mode : Lossless
Stream size : 3.72 GiB (20%)
Language : English
Default : Yes
Forced : No
Original source medium : Blu-ray

Text #1
ID : 3
ID in the original source medium : 4772 (0x12A4)
Format : PGS
Muxing mode : zlib
Codec ID : S_HDMV/PGS
Codec ID/Info : Picture based subtitle format used on BDs/HD-DVDs
Duration : 2 h 31 min
Bit rate : 42.2 kb/s
Frame rate : 0.340 FPS
Count of elements : 3079
Stream size : 45.6 MiB (0%)
Title : chs&eng
Language : Chinese
Default : Yes
Forced : No
Original source medium : Blu-ray

Text #2
ID : 4
ID in the original source medium : 4773 (0x12A5)
Format : PGS
Muxing mode : zlib
Codec ID : S_HDMV/PGS
Codec ID/Info : Picture based subtitle format used on BDs/HD-DVDs
Duration : 2 h 31 min
Bit rate : 42.3 kb/s
Frame rate : 0.340 FPS
Count of elements : 3079
Stream size : 45.7 MiB (0%)
Title : cht&eng
Language : Chinese
Default : No
Forced : No
Original source medium : Blu-ray

Text #3
ID : 5
ID in the original source medium : 4774 (0x12A6)
Format : PGS
Muxing mode : zlib
Codec ID : S_HDMV/PGS
Codec ID/Info : Picture based subtitle format used on BDs/HD-DVDs
Duration : 2 h 31 min
Bit rate : 24.9 kb/s
Frame rate : 0.340 FPS
Count of elements : 3079
Stream size : 26.9 MiB (0%)
Title : chs
Language : Chinese
Default : No
Forced : No
Original source medium : Blu-ray

Text #4
ID : 6
ID in the original source medium : 4775 (0x12A7)
Format : PGS
Muxing mode : zlib
Codec ID : S_HDMV/PGS
Codec ID/Info : Picture based subtitle format used on BDs/HD-DVDs
Duration : 2 h 31 min
Bit rate : 25.1 kb/s
Frame rate : 0.340 FPS
Count of elements : 3079
Stream size : 27.1 MiB (0%)
Title : cht
Language : Chinese
Default : No
Forced : No
Original source medium : Blu-ray

Text #5
ID : 7
ID in the original source medium : 4776 (0x12A8)
Format : PGS
Muxing mode : zlib
Codec ID : S_HDMV/PGS
Codec ID/Info : Picture based subtitle format used on BDs/HD-DVDs
Duration : 2 h 30 min
Bit rate : 20.3 kb/s
Frame rate : 0.337 FPS
Count of elements : 3037
Stream size : 21.8 MiB (0%)
Language : English
Default : No
Forced : No
Original source medium : Blu-ray

Menu
00:00:00.000 : en:第 01 章
00:21:05.764 : en:第 02 章
00:41:24.148 : en:第 03 章
01:03:58.376 : en:第 04 章
01:23:04.020 : en:第 05 章
01:41:35.964 : en:第 06 章
02:02:53.908 : en:第 07 章
02:22:02.639 : en:第 08 章


部分资源为软字幕,移动端推荐播放器:MxPlayer,nPlayer,infuse ,其他播放器请自行尝试。

部分资源为软字幕,电脑端推荐播放器:PotPlayer,完美解码,KMPLAYER,其他播放器请自行尝试。

下载端推荐纯BT下载软件:qBittorrent,Bitcomet,uTorrent ,其他下载软件请自行尝试。不支持吸血迅雷。



1 个附件 售价 大小 下载 时间

House.of.Gucci.2021.NOR.2160p.UHD.BluRay.x265.10bit.HDR.DTS-HD.MA.5.1-SONYH..[1LOU.ME].torrent 0 金币 49.41K 1120 次 24天前

#1楼
发帖时间:2024-04-24 12:14:26   |   回复数:0
游客组