Asuka601
隐世仙人♂

[更 早] [其它] [喜剧] [WEB-4K] 一夜狂欢[HDR/杜比视界双版本][简繁英字幕].A.Hard.Days.Night.1964.CC.2160p.UHD.BluRay.x265.10bit.D

-->

完整标题:一夜狂欢[HDR/杜比视界双版本][简繁英字幕].A.Hard.Days.Night.1964.CC.2160p.UHD.BluRay.x265.10bit.DV.DTS-HD.MA.5.1-SONYHD 16.64GB



◎标  题 一夜狂欢
◎译  名 艰难时光
◎片  名 A Hard Day's Night
◎年  代 1964
◎产  地 英国
◎类  别 喜剧 / 音乐
◎语  言 英语 / 德语
◎上映日期 1964-07-06
◎IMDb评分 7.5/10 (47477人评价)
◎IMDb链接 https://www.imdb.com/title/tt0058182/
◎豆瓣评分 8.5/10 (5616人评价)
◎豆瓣链接 https://movie.douban.com/subject/1298566/
◎片  长 87 分钟
◎导  演 理查德·莱斯特 Richard Lester
◎编  剧 阿伦·欧文 Alun Owen
◎演  员 约翰·列侬 John Lennon
      保罗·麦卡特尼 Paul McCartney
      乔治·哈里森 George Harrison
      林戈·斯塔尔 Ringo Starr
      Gordon Rollings Gordon Rollings
      Geraldine Sherman Geraldine Sherman
      德里克·尼莫 Derek Nimmo
      玛格丽特·诺兰 Margaret Nolan
      简·兰布 Jane Lumb
      夏洛特·兰普林 Charlotte Rampling
      诺曼·罗辛顿 Norman Rossington
      维克多·皮内蒂 Victor Spinetti
      Michael Trubshawe Michael Trubshawe
      玛丽安·斯通 Marianne Stone
      理查德·弗农 Richard Vernon
      卡罗尔·怀特 Carol White
      Anna Quayle Anna Quayle
      Dougie Millings Dougie Millings
      Ric Hutton Ric Hutton
      David Langton David Langton
      Linda Lewis Linda Lewis
      Julian Holloway Julian Holloway
      David Janson David Janson
      Jeremy Lloyd Jeremy Lloyd
      约翰·琼金 John Junkin
      Roger Avon Roger Avon
      Bridget Armstrong Bridget Armstrong
      Clare Kelly Clare Kelly
      Deryck Guyler Deryck Guyler
      肯尼思·黑格 Kenneth Haigh
      Rosemarie Frankland Rosemarie Frankland
      威尔弗里德·布兰贝尔 Wilfrid Brambell
      帕蒂·博伊德 Pattie Boyd
      Lionel Blair Lionel Blair
      伊斯拉·布莱尔 Isla Blair
      菲尔·柯林斯 Phil Collins

◎简  介
    1963年秋天,为了从红透半边天的甲壳虫身上赚笔钱,美国的United Artists和甲壳虫签约拍摄一部电影,目的是得以在美国推出电影的原声唱片。他们找到Walter Shenson做制片,Richard Lester导演,在1964年拍摄了电影A Hard Day's Night。   Shenson在1963年秋甲壳虫前往美国前与他们接触,要求他们为电影创作6首歌——题材不限,但要有两首抒情歌曲,两首快节奏的舞曲等等。在加勒比海度假期间,他们创作了八九首歌,Dick Lester从中选出了六首用于电影中,这些歌曲是:You Can't Do That、And I Love Her、I Should Have Known Better、Tell Me Why、If I Fell、I'm Happy Just to Dance with You。3月2日拍摄开始前,甲壳虫在伦敦EMI录音室里录制了这些歌曲。其中演奏You Can't Do That的部分在电影推出时被剪辑掉了,但之前就做为Can't Buy Me Love单曲的B面发行,也仍然出现在美国版的原声唱片上。   电影拍摄从3月2日开始,至4月24日结束。影片用夸张的手法描述甲壳虫一天的生活,其主题来自John Lennon说过的一句话。当Lester问John他们的瑞典之行如何时,John答道:“It was a room and a car and a car and a room and a room and a car.”这句话稍加变动后被用在电影里,变成了“Paul的爷爷”的台词。   Shenson原先以为他可以随便找一首新歌的歌名作为电影题目,但这六首新歌都不太合适。拍摄期间,大家绞尽脑汁为电影找一个合适的名字。最后有一天,John和他聊天时提起Ringo有趣的语言,并举出“A hard day's night”为例。John自己在刚出版的《In His Own Write》也曾经使用过这个短语。大家一致同意它可以作为电影题目。于是John按Shenson的嘱咐,以此为题创作了电影的主题歌,并在4月16日拍摄电影期间把它录制下来。   美国出版的电影原声唱片只包括这七首新歌,但为了Parlophone的英国唱片,他们在6月回到录音室,又录制了5首新歌: I'll Cry Instead、I'll be Back、Any Time At all、Things We Said Today和 When I Get Home。加上电影里使用的他们之前发行过的单曲Can't Buy Me Love,英国的专辑唱片里一共有13首歌,全部是甲壳虫的原创歌曲。这是他们第一次能够推出一张全部原创的专辑。   这一成就主要应归功于John Lennon当时旺盛的创作力。在这13首歌里,9首都是他主笔创作的。Paul主笔创作了3首歌,并和John合作为George创作了I'm Happy Just to Dance With You。当然,按照主创者主唱的原则,John在这张专辑中的主唱也远远超过其他三人,甚至没有给Ringo一个表现的机会。   A Hard Day's Night的电影成为摇滚电影的经典,教给整整一代年轻人反叛的原则,而这张专辑标志着甲壳虫的创作进入了一个新的阶段,我们可以把它叫做“早期阶段的中期”吧?

##### MediaInfo ######
General
Unique ID : 28448201492656838141649808908654242799 (0x1566EC9FB3D7D6F0670F2693160C6BEF)
Complete name : A.Hard.Days.Night.1964.CC.2160p.UHD.BluRay.x265.10bit.DV.DTS-HD.MA.5.1-SONYHD.mkv
Duration : 1 h 27 min
Overall bit rate mode : Variable
Overall bit rate : 27.2 Mb/s

Video
ID : 1
Format : HEVC
Format/Info : High Efficiency Video Coding
Format profile : Main [email protected]@High
HDR format : Dolby Vision, Version 1.0, dvhe.08.06, BL+RPU, HDR10 compatible / SMPTE ST 2086, HDR10 compatible
Codec ID : V_MPEGH/ISO/HEVC
Duration : 1 h 27 min
Bit rate : 23.1 Mb/s
Width : 3 780 pixels
Height : 2 160 pixels
Display aspect ratio : 16:9
Frame rate mode : Constant
Frame rate : 23.976 (24000/1001) FPS
Color space : YUV
Chroma subsampling : 4:2:0
Bit depth : 10 bits
Bits/(Pixel*Frame) : 0.118
Stream size : 14.1 GiB (85%)
Writing library : x265 3.5g2b25c9ba0+45:[Windows][MSVC 1926][64 bit] Yuuki 10bit+8bit+12bit
Encoding settings : rc=crf / crf=25.0000 / qcomp=0.60 / qpstep=4 / stats-write=0 / stats-read=0 / vbv-maxrate=160000 / vbv-bufsize=160000 / vbv-init=0.9 / min-vbv-fullness=50.0 / max-vbv-fullness=80.0 / crf-max=0.0 / crf-min=0.0 / no-lossless / no-cu-lossless / aq-mode=3 / aq-strength=0.70 / cbqpoffs=0 / crqpoffs=0 / ipratio=1.40 / pbratio=1.30 / psy-rd=2.00 / psy-rdoq=2.00 / deblock=-3:-3 / ref=5 / limit-refs=1 / no-limit-modes / bframes=11 / b-adapt=2 / bframe-bias=0 / b-pyramid / b-intra / weightp / weightb / min-keyint=1 / max-keyint=240 / rc-lookahead=72 / gop-lookahead=0 / scenecut=40 / hist-scenecut=0 / radl=0 / max-cu-size=64 / min-cu-size=8 / me=3 / subme=6 / merange=48 / rdoq-level=2 / rd=4 / rdpenalty=0 / dynamic-rd=0.00 / no-rd-refine / ----- / no-cutree / no-sao / no-rect / no-amp / no-open-gop / wpp / no-pmode / no-pme / no-psnr / no-ssim / nr-intra=0 / nr-inter=0 / no-constrained-intra / no-strong-intra-smoothing / max-tu-size=32 / tu-inter-depth=4 / tu-intra-depth=4 / limit-tu=0 / qg-size=32 / qpmax=69 / qpmin=0 / ----- / cpuid=1111039 / frame-threads=4 / numa-pools=+ / log-level=2 / input-csp=1 / input-res=3780x2160 / interlace=0 / level-idc=51 / high-tier=1 / uhd-bd=0 / no-allow-non-conformance / repeat-headers / aud / hrd / info / hash=0 / no-temporal-layers / lookahead-slices=0 / no-splice / no-intra-refresh / no-ssim-rd / signhide / no-tskip / max-merge=5 / temporal-mvp / no-frame-dup / no-hme / analyze-src-pics / no-sao-non-deblock / selective-sao=0 / early-skip / rskip / no-fast-intra / no-tskip-fast / no-splitrd-skip / zone-count=0 / no-strict-cbr / no-rc-grain / no-const-vbv / sar=0 / overscan=0 / videoformat=5 / range=0 / colorprim=9 / transfer=16 / colormatrix=9 / chromaloc=0 / display-window=0 / master-display=G(13250,34500)B(7500,3000)R(34000,16000)WP(15635,16450)L(10000000,1) / cll=562,191 / min-luma=0 / max-luma=1023 / log2-max-poc-lsb=8 / vui-timing-info / vui-hrd-info / slices=1 / no-opt-qp-pps / no-opt-ref-list-length-pps / no-multi-pass-opt-rps / scenecut-bias=0.05 / hist-threshold=0.03 / no-opt-cu-delta-qp / no-aq-motion / hdr10 / no-hdr10-opt / no-dhdr10-opt / no-idr-recovery-sei / analysis-reuse-level=0 / analysis-save-reuse-level=0 / analysis-load-reuse-level=0 / scale-factor=0 / refine-intra=0 / refine-inter=0 / refine-mv=1 / refine-ctu-distortion=0 / no-limit-sao / ctu-info=0 / no-lowpass-dct / refine-analysis-type=0 / copy-pic=1 / max-ausize-factor=1.0 / no-dynamic-refine / no-single-sei / no-hevc-aq / no-svt / no-field / qp-adaptation-range=1.00 / scenecut-aware-qp=0conformance-window-offsets / right=0 / bottom=0 / decoder-max-rate=0 / no-vbv-live-multi-pass
Default : Yes
Forced : No
Color range : Limited
Color primaries : BT.2020
Transfer characteristics : PQ
Matrix coefficients : BT.2020 non-constant
Mastering display color primaries : Display P3
Mastering display luminance : min: 0.0001 cd/m2, max: 1000 cd/m2
Maximum Content Light Level : 562 cd/m2
Maximum Frame-Average Light Level : 191 cd/m2

Audio
ID : 2
ID in the original source medium : 4353 (0x1101)
Format : DTS XLL
Format/Info : Digital Theater Systems
Commercial name : DTS-HD Master Audio
Codec ID : A_DTS
Duration : 1 h 27 min
Bit rate mode : Variable
Bit rate : 3 985 kb/s
Channel(s) : 6 channels
Channel layout : C L R Ls Rs LFE
Sampling rate : 48.0 kHz
Frame rate : 93.750 FPS (512 SPF)
Bit depth : 24 bits
Compression mode : Lossless
Stream size : 2.44 GiB (15%)
Language : English
Default : Yes
Forced : No
Original source medium : Blu-ray

Text #1
ID : 3
ID in the original source medium : 4769 (0x12A1)
Format : PGS
Muxing mode : zlib
Codec ID : S_HDMV/PGS
Codec ID/Info : Picture based subtitle format used on BDs/HD-DVDs
Duration : 1 h 27 min
Bit rate : 52.2 kb/s
Frame rate : 0.528 FPS
Count of elements : 2757
Stream size : 32.5 MiB (0%)
Title : chs&eng
Language : Chinese
Default : Yes
Forced : No
Original source medium : Blu-ray

Text #2
ID : 4
ID in the original source medium : 4770 (0x12A2)
Format : PGS
Muxing mode : zlib
Codec ID : S_HDMV/PGS
Codec ID/Info : Picture based subtitle format used on BDs/HD-DVDs
Duration : 1 h 27 min
Bit rate : 52.4 kb/s
Frame rate : 0.528 FPS
Count of elements : 2757
Stream size : 32.6 MiB (0%)
Title : cht&eng
Language : Chinese
Default : No
Forced : No
Original source medium : Blu-ray

Text #3
ID : 5
ID in the original source medium : 4771 (0x12A3)
Format : PGS
Muxing mode : zlib
Codec ID : S_HDMV/PGS
Codec ID/Info : Picture based subtitle format used on BDs/HD-DVDs
Duration : 1 h 27 min
Bit rate : 31.7 kb/s
Frame rate : 0.528 FPS
Count of elements : 2757
Stream size : 19.7 MiB (0%)
Title : chs
Language : Chinese
Default : No
Forced : No
Original source medium : Blu-ray

Text #4
ID : 6
ID in the original source medium : 4772 (0x12A4)
Format : PGS
Muxing mode : zlib
Codec ID : S_HDMV/PGS
Codec ID/Info : Picture based subtitle format used on BDs/HD-DVDs
Duration : 1 h 27 min
Bit rate : 31.9 kb/s
Frame rate : 0.528 FPS
Count of elements : 2757
Stream size : 19.8 MiB (0%)
Title : cht
Language : Chinese
Default : No
Forced : No
Original source medium : Blu-ray

Text #5
ID : 7
ID in the original source medium : 4768 (0x12A0)
Format : PGS
Muxing mode : zlib
Codec ID : S_HDMV/PGS
Codec ID/Info : Picture based subtitle format used on BDs/HD-DVDs
Duration : 1 h 26 min
Bit rate : 67.3 kb/s
Frame rate : 0.549 FPS
Count of elements : 2864
Stream size : 41.9 MiB (0%)
Language : English
Default : No
Forced : No
Original source medium : Blu-ray

Menu
00:00:00.000 : en:Chapter 01
00:02:35.947 : en:Chapter 02
00:05:40.089 : en:Chapter 03
00:07:59.270 : en:Chapter 04
00:11:47.123 : en:Chapter 05
00:17:00.811 : en:Chapter 06
00:26:03.562 : en:Chapter 07
00:31:02.277 : en:Chapter 08
00:37:06.933 : en:Chapter 09
00:39:28.908 : en:Chapter 10
00:46:13.520 : en:Chapter 11
00:50:48.045 : en:Chapter 12
00:52:42.742 : en:Chapter 13
00:56:02.776 : en:Chapter 14
00:59:24.519 : en:Chapter 15
01:07:16.282 : en:Chapter 16
01:11:27.950 : en:Chapter 17
01:13:40.624 : en:Chapter 18
01:21:23.795 : en:Chapter 19
01:24:24.976 : en:Chapter 20


部分资源为软字幕,移动端推荐播放器:MxPlayer,nPlayer,infuse ,其他播放器请自行尝试。

部分资源为软字幕,电脑端推荐播放器:PotPlayer,完美解码,KMPLAYER,其他播放器请自行尝试。

下载端推荐纯BT下载软件:qBittorrent,Bitcomet,uTorrent ,其他下载软件请自行尝试。不支持吸血迅雷。



1 个附件 售价 大小 下载 时间

A.Hard.Days.Night.1964.CC.2160p.UHD.BluRay.x265.10bit.DV.DTS-HD.MA.5.1-SONY..[1LOU.ME].torrent 0 金币 44.23K 1075 次 24天前

#1楼
发帖时间:2024-04-24 12:11:57   |   回复数:0
游客组