Asuka601
隐世仙人♂

[2018] [其它] [剧情] [BD-1080P] 狼屋[中文字幕].The.Wolf.House.2018.1080p.BluRay.x264.DTS-SONYHD 7.76GB

-->

完整标题:狼屋[中文字幕].The.Wolf.House.2018.1080p.BluRay.x264.DTS-SONYHD 7.76GB



◎标  题 狼屋
◎译  名 狼隐之家(港) / 噬魂之屋(台) / The Wolf House
◎片  名 La casa lobo
◎年  代 2018
◎产  地 智利 / 德国
◎类  别 剧情 / 动画 / 恐怖
◎语  言 西班牙语 / 德语
◎上映日期 2018-02-22(柏林电影节)
◎IMDb评分 7.5/10 (4545人评价)
◎IMDb链接 https://www.imdb.com/title/tt8173728/
◎豆瓣评分 8.2/10 (4941人评价)
◎豆瓣链接 https://movie.douban.com/subject/26754734/
◎片  长 75分钟
◎导  演 乔奎因·科西纳 Joaquín Cociña
      克里斯托弗·列昂 Cristóbal León
◎编  剧 乔奎因·科西纳 Joaquín Cociña
      克里斯托弗·列昂 Cristóbal León
      亚历山德拉·莫法特 Alejandra Moffat
◎演  员 阿玛莉亚·卡西尼 Amalia Kassai
      雷纳·克劳斯 Rainer Krause

◎简  介
    曾几何时,智利恶名昭彰的异端组织「尊严殖民地」,由一名恋童的前纳粹份子发起,建立了如同邪教的封闭社区,当中的德国移民,与皮诺切特独裁政权合作, 犯下种种令人发指的罪行。哥西尼亚和里昂合作的定格动画,灵感来自此组织。女孩玛利亚没服从命令,放走了三只小猪,被罚百日不能与人 说话,于是连夜逃跑,走进森林小屋,躲避狼的袭击。不停变动的场景,墙上移动的角色,犹如史云梅耶的天马行空,表现女孩挥之不去的梦魇世界,充满魔幻色彩。

##### MediaInfo ######
General
Unique ID : 162940999724462298402696626035541522922 (0x7A954B88A4E37005684FF732AD05B9EA)
Complete name : The.Wolf.House.2018.1080p.BluRay.x264.DTS-SONYHD.mkv
Duration : 1 h 13 min
Overall bit rate : 15.1 Mb/s

Video
ID : 1
Format : AVC
Format/Info : Advanced Video Codec
Format profile : [email protected]
Format settings : CABAC / 4 Ref Frames
Format settings, CABAC : Yes
Format settings, Reference frames : 4 frames
Codec ID : V_MPEG4/ISO/AVC
Duration : 1 h 13 min
Bit rate : 13.6 Mb/s
Width : 1 620 pixels
Height : 1 080 pixels
Display aspect ratio : 3:2
Frame rate mode : Constant
Frame rate : 24.000 FPS
Color space : YUV
Chroma subsampling : 4:2:0
Bit depth : 8 bits
Scan type : Progressive
Bits/(Pixel*Frame) : 0.324
Stream size : 6.98 GiB (90%)
Writing library : x264 core 164 r3107+55M 1028c06 t_mod_New [(8 & 10)-bit@all X86_64]
Encoding settings : cabac=1 / ref=4 / deblock=1:-3:-3 / analyse=0x3:0x133 / me=umh / subme=11 / psy=1 / fade_compensate=0.00 / psy_rd=0.50:0.00 / mixed_ref=1 / me_range=48 / chroma_me=1 / trellis=2 / 8x8dct=1 / cqm=0 / deadzone=21,11 / fast_pskip=0 / chroma_qp_offset=-3 / threads=34 / lookahead_threads=8 / sliced_threads=0 / nr=0 / decimate=0 / interlaced=0 / bluray_compat=0 / constrained_intra=0 / fgo=0 / bframes=11 / b_pyramid=2 / b_adapt=2 / b_bias=0 / direct=3 / weightb=1 / open_gop=0 / weightp=2 / keyint=240 / keyint_min=1 / scenecut=40 / intra_refresh=0 / rc_lookahead=72 / rc=crf / mbtree=0 / crf=19.5000 / qcomp=0.60 / qpmin=0:0:0 / qpmax=69:69:69 / qpstep=4 / vbv_maxrate=62500 / vbv_bufsize=78125 / crf_max=0.0 / nal_hrd=none / filler=0 / ip_ratio=1.20 / pb_ratio=1.10 / aq=3:0.60 / aq-sensitivity=10.00 / aq-factor=1.00:1.00:1.00 / aq2=0 / aq3=0
Language : English
Default : Yes
Forced : No

Audio
ID : 2
Format : DTS
Format/Info : Digital Theater Systems
Codec ID : A_DTS
Duration : 1 h 13 min
Bit rate mode : Constant
Bit rate : 1 510 kb/s
Channel(s) : 6 channels
Channel layout : C L R Ls Rs LFE
Sampling rate : 48.0 kHz
Frame rate : 93.750 FPS (512 SPF)
Bit depth : 24 bits
Compression mode : Lossy
Stream size : 794 MiB (10%)
Language : Spanish
Default : Yes
Forced : No

Text #1
ID : 3
ID in the original source medium : 4609 (0x1201)
Format : PGS
Muxing mode : zlib
Codec ID : S_HDMV/PGS
Codec ID/Info : Picture based subtitle format used on BDs/HD-DVDs
Duration : 1 h 8 min
Bit rate : 14.5 kb/s
Frame rate : 0.203 FPS
Count of elements : 834
Stream size : 7.10 MiB (0%)
Title : chs
Language : Chinese
Default : Yes
Forced : No
Original source medium : Blu-ray

Text #2
ID : 4
ID in the original source medium : 4610 (0x1202)
Format : PGS
Muxing mode : zlib
Codec ID : S_HDMV/PGS
Codec ID/Info : Picture based subtitle format used on BDs/HD-DVDs
Duration : 1 h 8 min
Bit rate : 14.6 kb/s
Frame rate : 0.203 FPS
Count of elements : 834
Stream size : 7.14 MiB (0%)
Title : cht
Language : Chinese
Default : No
Forced : No
Original source medium : Blu-ray

Menu
00:00:00.000 : en:Chapter 01
00:02:59.500 : en:Chapter 02
00:04:21.833 : en:Chapter 03
00:08:23.250 : en:Chapter 04
00:12:03.833 : en:Chapter 05
00:13:39.416 : en:Chapter 06
00:15:48.833 : en:Chapter 07
00:17:04.666 : en:Chapter 08
00:19:16.833 : en:Chapter 09
00:23:15.333 : en:Chapter 10
00:24:33.083 : en:Chapter 11
00:26:51.833 : en:Chapter 12
00:28:59.083 : en:Chapter 13
00:31:45.583 : en:Chapter 14
00:34:47.250 : en:Chapter 15
00:38:38.666 : en:Chapter 16
00:39:54.458 : en:Chapter 17
00:41:22.625 : en:Chapter 18
00:46:00.791 : en:Chapter 19
00:50:04.416 : en:Chapter 20
00:52:34.291 : en:Chapter 21
00:53:40.291 : en:Chapter 22
00:56:00.458 : en:Chapter 23
00:59:42.875 : en:Chapter 24
01:00:59.458 : en:Chapter 25
01:05:05.708 : en:Chapter 26
01:07:38.208 : en:Chapter 27
01:10:29.875 : en:Chapter 28


部分资源为软字幕,移动端推荐播放器:MxPlayer,nPlayer,infuse ,其他播放器请自行尝试。

部分资源为软字幕,电脑端推荐播放器:PotPlayer,完美解码,KMPLAYER,其他播放器请自行尝试。

下载端推荐纯BT下载软件:qBittorrent,Bitcomet,uTorrent ,其他下载软件请自行尝试。不支持吸血迅雷。



1 个附件 售价 大小 下载 时间

The.Wolf.House.2018.1080p.BluRay.x264.DTS-SONYHD[1LOU.ME].torrent 0 金币 21.95K 1169 次 24天前

#1楼
发帖时间:2024-04-24 08:47:15   |   回复数:0
游客组