Asuka601
隐世仙人♂

[2020] [欧美] [剧情] [BD-1080P] 无依之地[简繁英字幕].Nomadland.2020.1080p.BluRay.x265.10bit.DTS-SONYHD 4.00GB

-->

完整标题:无依之地[简繁英字幕].Nomadland.2020.1080p.BluRay.x265.10bit.DTS-SONYHD 4.00GB



◎标  题 无依之地
◎译  名 浪迹天地(港) / 游牧人生(台) / 游牧之地
◎片  名 Nomadland
◎年  代 2020
◎产  地 美国
◎类  别 剧情
◎语  言 英语
◎上映日期 2020-09-11(威尼斯电影节) / 2021-01-29(美国) / 2021-02-19(美国网络)
◎IMDb评分 7.3/10 (177376人评价)
◎IMDb链接 https://www.imdb.com/title/tt9770150/
◎豆瓣评分 8.1/10 (170493人评价)
◎豆瓣链接 https://movie.douban.com/subject/30458949/
◎片  长 108分钟
◎导  演 赵婷 Chloé Zhao
◎编  剧 赵婷 Chloé Zhao
      杰西卡·布鲁德 Jessica Bruder
◎演  员 弗兰西斯·麦克多蒙德 Frances McDormand
      大卫·斯特雷泽恩 David Strathairn
      德里克·贾尼斯 Derrick Janis
      泰·斯特雷泽恩 Tay Strathairn
      卡特·克利福德 Cat Clifford
      彼得·斯皮尔斯 Peter Spears
      盖伊·德福雷斯特 Gay DeForest
      帕特里夏·格里尔 Patricia Grier
      琳达·梅 Linda May
      安吉拉·雷耶斯 Angela Reyes
      卡尔·R·休斯 Carl R. Hughes
      道格拉斯·G·苏尔 Douglas G. Soul
      瑞安·阿基诺 Ryan Aquino
      特蕾莎·布坎南 Teresa Buchanan
      凯莉·林恩·麦克德莫特·怀尔德 Karie Lynn McDermott Wilder
      布兰迪·威尔伯 Brandy Wilber
      马克西·埃切维里 Makenzie Etcheverry
      鲍勃·威尔斯 Bob Wells
      安妮特·威尔斯 Annette Wells
      瑞秋·班农 Rachel Bannon
      夏琳·斯旺基 Charlene Swankie

◎简  介
    2008年金融危机下,美国内华达州昂皮尔小镇的重要经济支柱石膏厂倒闭,人去镇空,这里的邮政编码也被取消。丈夫去世后,几乎在在昂皮尔小镇度过了一生的弗恩(弗兰西斯·麦克多蒙德饰)无力独撑生活。为了将生活成本压到最低,她将简陋的家当搬上了改装后的厢式货车,开始了一边打工、一边西行的公路生活。她在亚马逊流水线上、在游乐园的咖啡厅里、在国家森林公园做临时工。一路上,她和许多厢式货车寄居者相遇、相识,彼此帮助,并缔结了友谊。

##### MediaInfo ######
General
Unique ID : 124064859037353486641886011488306856334 (0x5D5605D019E716A5CD7257F92996018E)
Complete name : Nomadland.2020.1080p.BluRay.x265.10bit.DTS-SONYHD.mkv
Duration : 1 h 47 min
Overall bit rate : 5 318 kb/s

Video
ID : 1
Format : HEVC
Format/Info : High Efficiency Video Coding
Format profile : Main 10@L4@Main
Codec ID : V_MPEGH/ISO/HEVC
Duration : 1 h 47 min
Bit rate : 3 722 kb/s
Width : 1 920 pixels
Height : 804 pixels
Display aspect ratio : 2.40:1
Frame rate mode : Constant
Frame rate : 23.976 (24000/1001) FPS
Color space : YUV
Chroma subsampling : 4:2:0
Bit depth : 10 bits
Bits/(Pixel*Frame) : 0.101
Stream size : 2.80 GiB (70%)
Writing library : x265 3.5g2b25c9ba0+45:[Windows][GCC 10.2.0][64 bit] Yuuki 10bit+8bit+12bit
Encoding settings : rc=crf / crf=18.5000 / qcomp=0.70 / qpstep=4 / stats-write=0 / stats-read=0 / no-lossless / no-cu-lossless / aq-mode=3 / aq-strength=0.90 / cbqpoffs=0 / crqpoffs=0 / ipratio=1.40 / pbratio=1.30 / psy-rd=2.00 / psy-rdoq=0.00 / deblock=0:0 / ref=6 / limit-refs=1 / no-limit-modes / bframes=8 / b-adapt=2 / bframe-bias=0 / b-pyramid / b-intra / weightp / weightb / min-keyint=24 / max-keyint=240 / rc-lookahead=24 / gop-lookahead=0 / scenecut=40 / hist-scenecut=0 / radl=0 / max-cu-size=64 / min-cu-size=8 / me=3 / subme=7 / merange=48 / rdoq-level=0 / rd=4 / rdpenalty=0 / dynamic-rd=0.00 / no-rd-refine / ----- / cutree / sao / no-rect / no-amp / no-open-gop / wpp / no-pmode / no-pme / no-psnr / no-ssim / nr-intra=0 / nr-inter=0 / no-constrained-intra / no-strong-intra-smoothing / max-tu-size=32 / tu-inter-depth=1 / tu-intra-depth=1 / limit-tu=0 / qg-size=32 / qpmax=69 / qpmin=0 / ----- / cpuid=1111039 / frame-threads=4 / numa-pools=+ / log-level=2 / input-csp=1 / input-res=1920x804 / interlace=0 / level-idc=0 / high-tier=1 / uhd-bd=0 / no-allow-non-conformance / no-repeat-headers / aud / no-hrd / info / hash=0 / no-temporal-layers / lookahead-slices=0 / no-splice / no-intra-refresh / no-ssim-rd / signhide / no-tskip / max-merge=3 / temporal-mvp / no-frame-dup / no-hme / no-analyze-src-pics / no-sao-non-deblock / selective-sao=4 / early-skip / rskip / no-fast-intra / no-tskip-fast / no-splitrd-skip / zone-count=0 / no-strict-cbr / no-rc-grain / no-const-vbv / sar=0 / overscan=0 / videoformat=5 / range=0 / colorprim=2 / transfer=2 / colormatrix=2 / chromaloc=0 / display-window=0 / cll=0,0 / min-luma=0 / max-luma=1023 / log2-max-poc-lsb=8 / vui-timing-info / vui-hrd-info / slices=1 / no-opt-qp-pps / no-opt-ref-list-length-pps / no-multi-pass-opt-rps / scenecut-bias=0.05 / hist-threshold=0.03 / no-opt-cu-delta-qp / no-aq-motion / no-hdr10 / no-hdr10-opt / no-dhdr10-opt / no-idr-recovery-sei / analysis-reuse-level=0 / analysis-save-reuse-level=0 / analysis-load-reuse-level=0 / scale-factor=0 / refine-intra=0 / refine-inter=0 / refine-mv=1 / refine-ctu-distortion=0 / no-limit-sao / ctu-info=0 / no-lowpass-dct / refine-analysis-type=0 / copy-pic=1 / max-ausize-factor=1.0 / no-dynamic-refine / no-single-sei / no-hevc-aq / no-svt / no-field / qp-adaptation-range=1.00 / scenecut-aware-qp=0conformance-window-offsets / right=0 / bottom=0 / decoder-max-rate=0 / no-vbv-live-multi-pass
Default : Yes
Forced : No

Audio
ID : 2
ID in the original source medium : 4352 (0x1100)
Format : DTS
Format/Info : Digital Theater Systems
Codec ID : A_DTS
Duration : 1 h 47 min
Bit rate mode : Constant
Bit rate : 1 509 kb/s
Channel(s) : 6 channels
Channel layout : C L R Ls Rs LFE
Sampling rate : 48.0 kHz
Frame rate : 93.750 FPS (512 SPF)
Bit depth : 24 bits
Compression mode : Lossy
Stream size : 1.13 GiB (28%)
Language : English
Default : Yes
Forced : No
Original source medium : Blu-ray

Text #1
ID : 3
ID in the original source medium : 4626 (0x1212)
Format : PGS
Muxing mode : zlib
Codec ID : S_HDMV/PGS
Codec ID/Info : Picture based subtitle format used on BDs/HD-DVDs
Duration : 1 h 43 min
Bit rate : 47.0 kb/s
Frame rate : 0.347 FPS
Count of elements : 2157
Stream size : 34.9 MiB (1%)
Title : chs&eng
Language : Chinese
Default : Yes
Forced : No
Original source medium : Blu-ray

Text #2
ID : 4
ID in the original source medium : 4627 (0x1213)
Format : PGS
Muxing mode : zlib
Codec ID : S_HDMV/PGS
Codec ID/Info : Picture based subtitle format used on BDs/HD-DVDs
Duration : 1 h 43 min
Bit rate : 47.1 kb/s
Frame rate : 0.347 FPS
Count of elements : 2157
Stream size : 34.9 MiB (1%)
Title : cht&eng
Language : Chinese
Default : No
Forced : No
Original source medium : Blu-ray

Text #3
ID : 5
ID in the original source medium : 4628 (0x1214)
Format : PGS
Muxing mode : zlib
Codec ID : S_HDMV/PGS
Codec ID/Info : Picture based subtitle format used on BDs/HD-DVDs
Duration : 1 h 43 min
Bit rate : 29.0 kb/s
Frame rate : 0.347 FPS
Count of elements : 2157
Stream size : 21.5 MiB (1%)
Title : chs
Language : Chinese
Default : No
Forced : No
Original source medium : Blu-ray

Text #4
ID : 6
ID in the original source medium : 4629 (0x1215)
Format : PGS
Muxing mode : zlib
Codec ID : S_HDMV/PGS
Codec ID/Info : Picture based subtitle format used on BDs/HD-DVDs
Duration : 1 h 43 min
Bit rate : 29.1 kb/s
Frame rate : 0.347 FPS
Count of elements : 2157
Stream size : 21.6 MiB (1%)
Title : cht
Language : Chinese
Default : No
Forced : No
Original source medium : Blu-ray

Text #5
ID : 7
ID in the original source medium : 4608 (0x1200)
Format : PGS
Muxing mode : zlib
Codec ID : S_HDMV/PGS
Codec ID/Info : Picture based subtitle format used on BDs/HD-DVDs
Duration : 1 h 46 min
Bit rate : 42.1 kb/s
Frame rate : 0.496 FPS
Count of elements : 3162
Stream size : 32.0 MiB (1%)
Title : eng
Language : English
Default : No
Forced : No
Original source medium : Blu-ray

Menu
00:00:00.000 : en:Chapter 01
00:05:04.345 : en:Chapter 02
00:10:45.102 : en:Chapter 03
00:15:00.107 : en:Chapter 04
00:22:01.570 : en:Chapter 05
00:26:41.975 : en:Chapter 06
00:29:57.629 : en:Chapter 07
00:35:22.161 : en:Chapter 08
00:44:45.474 : en:Chapter 09
00:51:35.425 : en:Chapter 10
00:58:16.117 : en:Chapter 11
01:04:35.538 : en:Chapter 12
01:11:40.587 : en:Chapter 13
01:17:06.371 : en:Chapter 14
01:22:14.763 : en:Chapter 15
01:31:40.077 : en:Chapter 16
01:38:30.613 : en:Chapter 17
01:43:17.357 : en:Chapter 18


部分资源为软字幕,移动端推荐播放器:MxPlayer,nPlayer,infuse ,其他播放器请自行尝试。

部分资源为软字幕,电脑端推荐播放器:PotPlayer,完美解码,KMPLAYER,其他播放器请自行尝试。

下载端推荐纯BT下载软件:qBittorrent,Bitcomet,uTorrent ,其他下载软件请自行尝试。不支持吸血迅雷。



1 个附件 售价 大小 下载 时间

Nomadland.2020.1080p.BluRay.x265.10bit.DTS-SONYHD[1LOU.ME].torrent 0 金币 12.54K 1134 次 24天前

#1楼
发帖时间:2024-04-24 08:42:45   |   回复数:0
游客组