Asuka601
隐世仙人♂

[2024] [欧美] [动作] [WEB-1080P] 怒火战猴[无字片源].Monkey.Man.2024.1080p.iTunes.WEB-DL.DDP.5.1.Atmos.H.264-DreamHD 6.33G

-->

完整标题:怒火战猴[无字片源].Monkey.Man.2024.1080p.iTunes.WEB-DL.DDP.5.1.Atmos.H.264-DreamHD 6.33GB



◎标  题 怒火战猴
◎译  名 小魔猴 / 怒火狂猴(台)
◎片  名 Monkey Man
◎年  代 2024
◎产  地 美国 / 加拿大
◎类  别 动作 / 惊悚
◎语  言 英语
◎上映日期 2024-03-11(西南偏南电影节) / 2024-04-05(美国)
◎IMDb评分 7.4/10 (2965人评价)
◎IMDb链接 https://www.imdb.com/title/tt9214772/
◎豆瓣链接 https://movie.douban.com/subject/30365461/
◎片  长 121分钟
◎导  演 戴夫·帕特尔 Dev Patel
◎编  剧 保罗·安格纳维拉 Paul Angunawela
      约翰·科里 John Collee
      戴夫·帕特尔 Dev Patel
◎演  员 戴夫·帕特尔 Dev Patel
      沙尔托·科普雷 Sharlto Copley
      索比塔·杜里帕拉 Sobhita Dhulipala
      维品·沙尔马 Vipin Sharma
      西卡德尔·基尔 Sikandar Kher
      布拉汉姆·沙卜 Brahim Chab
      阿迪提·卡尔昆特 Adithi Kalkunte
      皮托巴什 Pitobash
      约瑟夫·J·U·泰勒 Joseph J.U. Taylor
      纳格什·邦勒 Nagesh Bhonsle
      吉诺·阿坎昆居·萨缪尔 Jino Achankunju Samuel
      达扬库·兹亚纳 Dayangku Zyana
      列娃·马谢林 Reva Marchellin
      安德烈斯·利维 Andres Levi
      杰里米·托齐亚克 Jeremy Tauziac
      佩汉·阿卜杜勒 Pehan Abdul
      阿隆娜·维基达内茨 Alona Vykydanets
      安努普·J·帕特尔 Anup J. Patel
      法哈德·斯科尔 Fahad Scale

◎简  介
    基德从小就生活在贫民窟里面,但是十一岁的时候当地的黑帮头目屠杀了自己所在的村庄,自己的父母也在其中。从小丧母的基德被监狱长沃顿抚养起来。小小年纪就寄人篱下的基德,变成了一个隐忍、沉默的人,在他28岁的时候,他终于离开了这片生他养他的地方。他心里只有找到仇人。成功离开的基德,为了能够获得生存的资源,只能靠打拳维生。但是打拳的工资着实不够养活自己。只能靠着打多分工来维持自己的生活。无意之中,基德发现了自己打工的国王俱乐部老板坤尼和当年的仇人有着莫大的关系。他想通过坤尼找到仇人的蛛丝马迹。幸运的是他后来又认识了愿意帮助自己的西塔。两个人做了缜密的计划,寻找到了仇人的所在。已经有了许多生活阅历的基德明白,靠自己一己之力是无法真正为父母和那些无辜的人报仇的。于是基德最后联合正义的警察,消灭了罪犯。

点击图片可查看大图

软字幕无法在截图上展现,HDR版本/杜比视界版本截图会出现颜色异常,请使用支持的设备播放!

##### MediaInfo ######
General
Unique ID : 180934681755253860160153526753969688937 (0x881EC08D5D7E0234BF0D011E06E1D169)
Complete name : Monkey.Man.2024.1080p.iTunes.WEB-DL.DDP.5.1.Atmos.H.264-DreamHD.mkv
Duration : 2 h 1 min
Overall bit rate : 7 450 kb/s

Video
ID : 1
Format : AVC
Format/Info : Advanced Video Codec
Format profile : High@L4
Format settings : CABAC / 5 Ref Frames
Format settings, CABAC : Yes
Format settings, Reference frames : 5 frames
Codec ID : V_MPEG4/ISO/AVC
Duration : 2 h 1 min
Bit rate : 6 680 kb/s
Width : 1 920 pixels
Height : 800 pixels
Display aspect ratio : 2.40:1
Frame rate mode : Constant
Frame rate : 24.000 FPS
Color space : YUV
Chroma subsampling : 4:2:0
Bit depth : 8 bits
Scan type : Progressive
Bits/(Pixel*Frame) : 0.181
Stream size : 5.67 GiB (90%)
Language : English
Default : Yes
Forced : No
Color range : Limited
Color primaries : BT.709
Transfer characteristics : BT.709
Matrix coefficients : BT.709

Audio
ID : 2
Format : E-AC-3 JOC
Format/Info : Enhanced AC-3 with Joint Object Coding
Commercial name : Dolby Digital Plus with Dolby Atmos
Codec ID : A_EAC3
Duration : 2 h 1 min
Bit rate mode : Constant
Bit rate : 768 kb/s
Channel(s) : 6 channels
Channel layout : L R C LFE Ls Rs
Sampling rate : 48.0 kHz
Frame rate : 31.250 FPS (1536 SPF)
Compression mode : Lossy
Stream size : 668 MiB (10%)
Language : English
Service kind : Complete Main
Default : Yes
Forced : No
Complexity index : 16
Number of dynamic objects : 15
Bed channel count : 1 channel
Bed channel configuration : LFE

Text
ID : 3
Format : UTF-8
Codec ID : S_TEXT/UTF8
Codec ID/Info : UTF-8 Plain Text
Duration : 2 h 0 min
Bit rate : 28 b/s
Frame rate : 0.127 FPS
Count of elements : 919
Stream size : 24.7 KiB (0%)
Title : Canada
Language : French
Default : No
Forced : No

Menu
00:00:00.000 : en:Chapter 01
00:07:31.785 : en:Chapter 02
00:13:39.611 : en:Chapter 03
00:21:38.423 : en:Chapter 04
00:29:24.472 : en:Chapter 05
00:36:48.249 : en:Chapter 06
00:43:32.821 : en:Chapter 07
00:51:14.407 : en:Chapter 08
00:59:30.195 : en:Chapter 09
01:06:53.930 : en:Chapter 10
01:14:37.060 : en:Chapter 11
01:22:50.345 : en:Chapter 12
01:30:36.978 : en:Chapter 13
01:41:39.015 : en:Chapter 14
01:48:02.857 : en:Chapter 15
01:53:42.030 : en:Chapter 16


部分资源为软字幕,移动端推荐播放器:MxPlayer,nPlayer,infuse ,其他播放器请自行尝试。

部分资源为软字幕,电脑端推荐播放器:PotPlayer,完美解码,KMPLAYER,其他播放器请自行尝试。

下载端推荐纯BT下载软件:qBittorrent,Bitcomet,uTorrent ,其他下载软件请自行尝试。不支持吸血迅雷。



1 个附件 售价 大小 下载 时间

Monkey.Man.2024.1080p.iTunes.WEB-DL.DDP.5.1.Atmos.H.264-DreamHD[1LOU.ME].torrent 0 金币 18.41K 1523 次 24天前

#1楼
发帖时间:2024-04-24 08:37:03   |   回复数:0
游客组