Asuka601
隐世仙人♂

[2006] [其它] [剧情] [BD-1080P] 幸运数字斯莱文[简繁英字幕].Lucky.Number.Slevin.2006.BluRay.1080p.DTS-HDMA5.1.x264-DreamHD 13

-->

完整标题:幸运数字斯莱文[简繁英字幕].Lucky.Number.Slevin.2006.BluRay.1080p.DTS-HDMA5.1.x264-DreamHD 13.92GB



◎标  题 幸运数字斯莱文
◎译  名 神鬼运转 / 关键密码 / 好运斯莱文
◎片  名 Lucky Number Slevin
◎年  代 2006
◎产  地 德国 / 英国 / 美国 / 加拿大
◎类  别 剧情 / 动作 / 惊悚 / 犯罪
◎语  言 英语
◎上映日期 2006-02-24(英国)
◎IMDb评分 7.7/10 (317370人评价)
◎IMDb链接 https://www.imdb.com/title/tt0425210/
◎豆瓣评分 7.4/10 (15831人评价)
◎豆瓣链接 https://movie.douban.com/subject/1478582/
◎片  长 110 分钟
◎导  演 保罗·麦圭根 Paul McGuigan
◎编  剧 杰森·史米洛维克 Jason Smilovic
◎演  员 乔什·哈奈特 Josh Hartnett
      布鲁斯·威利斯 Bruce Willis
      刘玉玲 Lucy Liu
      摩根·弗里曼 Morgan Freeman
      本·金斯利 Ben Kingsley
      彼德·奥德博拉治 Peter Outerbridge
      斯坦利·图齐 Stanley Tucci
      凯文·张伯伦 Kevin Chamberlin
      道林·米西克 Dorian Missick
      麦凯尔泰·威廉逊 Mykelti Williamson
      斯科特·吉布森 Scott Gibson
      丹尼尔·卡什 Daniel Kash
      迪米特里·柴波维特斯基 Dmitry Chepovetsky
      山姆·贾格 Sam Jaeger
      丹尼·爱罗 Danny Aiello
      Oliver Davis Oliver Davis
      寇瑞·斯托尔 Corey Stoll
      珍妮弗·米勒 Jennifer Miller
      塞巴斯蒂安·罗伯特斯 Sebastien Roberts
      罗伯特·福斯特 Robert Forster
      Janet Lane Janet Lane
      格里·曼迪西诺 Gerry Mendicino
      迪亚哥·克莱特霍夫 Diego Klattenhoff
      Rick Bramucci Rick Bramucci
      夸西·宋桂 Kwasi Songui
      阿尔文·鲍威尔 Alvin Powell
      Sacha Sojic
      鲍比·布朗 Bobby Brown
      Pascal Anctil
      马修·G·泰勒 Matthew G. Taylor

◎简  介
    老实巴交的小伙子斯莱文(乔什•哈奈特 Josh Hartnett 饰)带着好朋友尼克对他的承诺来到了世界金融中心纽约讨生活。尼克曾承诺只要斯莱文来纽约闯天下,他将提供一切的帮助。然而,当斯莱文按照尼克提供的地址找到尼克住所时,却发现尼克已经不知所踪。身无分文又无家可归的 斯莱文只好暂时住在尼克的空房子里。大麻烦降临到斯莱文的头上!原来纽约的两伙黑帮都在竭力寻找尼克,原因尼克知道一次“黑吃黑”事件的真相。这下他们都把住在尼克家的斯莱文当成了尼克!   一时,斯莱文百口莫辨,陷入了黑帮混战中。最后,“幸运”的斯莱文能否化险为夷?

点击图片可查看大图

软字幕无法在截图上展现,HDR版本/杜比视界版本截图会出现颜色异常,请使用支持的设备播放!

##### MediaInfo ######
General
Unique ID : 22313561021924964037500373404853583040 (0x10C96F7F24B341024189FBA7D34DBCC0)
Complete name : Lucky.Number.Slevin.2006.BluRay.1080p.DTS-HDMA5.1.x264-DreamHD.mkv
Duration : 1 h 49 min
Overall bit rate mode : Variable
Overall bit rate : 18.1 Mb/s

Video
ID : 1
Format : AVC
Format/Info : Advanced Video Codec
Format profile : [email protected]
Format settings : CABAC / 5 Ref Frames
Format settings, CABAC : Yes
Format settings, Reference frames : 5 frames
Codec ID : V_MPEG4/ISO/AVC
Duration : 1 h 49 min
Bit rate : 14.8 Mb/s
Width : 1 920 pixels
Height : 800 pixels
Display aspect ratio : 2.40:1
Frame rate mode : Constant
Frame rate : 23.976 (24000/1001) FPS
Color space : YUV
Chroma subsampling : 4:2:0
Bit depth : 8 bits
Scan type : Progressive
Bits/(Pixel*Frame) : 0.402
Stream size : 11.4 GiB (82%)
Writing library : x264 core 161 r3018 db0d417
Encoding settings : cabac=1 / ref=5 / deblock=1:-3:-3 / analyse=0x3:0x133 / me=umh / subme=11 / psy=1 / psy_rd=1.00:0.00 / mixed_ref=1 / me_range=64 / chroma_me=1 / trellis=2 / 8x8dct=1 / cqm=0 / deadzone=21,11 / fast_pskip=0 / chroma_qp_offset=-2 / threads=25 / lookahead_threads=6 / sliced_threads=0 / nr=0 / decimate=0 / interlaced=0 / bluray_compat=0 / constrained_intra=0 / bframes=12 / b_pyramid=2 / b_adapt=2 / b_bias=0 / direct=3 / weightb=1 / open_gop=0 / weightp=2 / keyint=250 / keyint_min=23 / scenecut=40 / intra_refresh=0 / rc=crf / mbtree=0 / crf=14.0 / qcomp=0.70 / qpmin=0 / qpmax=69 / qpstep=4 / ip_ratio=1.30 / pb_ratio=1.20 / aq=3:0.80
Default : Yes
Forced : No
Color range : Limited
Color primaries : BT.709
Matrix coefficients : BT.709

Audio
ID : 2
Format : DTS XLL
Format/Info : Digital Theater Systems
Commercial name : DTS-HD Master Audio
Codec ID : A_DTS
Duration : 1 h 49 min
Bit rate mode : Variable
Bit rate : 3 279 kb/s
Channel(s) : 6 channels
Channel layout : C L R Ls Rs LFE
Sampling rate : 48.0 kHz
Frame rate : 93.750 FPS (512 SPF)
Bit depth : 24 bits
Compression mode : Lossless
Stream size : 2.52 GiB (18%)
Title : ENG
Language : English
Default : Yes
Forced : No

Text #1
ID : 3
Format : PGS
Muxing mode : zlib
Codec ID : S_HDMV/PGS
Codec ID/Info : Picture based subtitle format used on BDs/HD-DVDs
Duration : 1 h 44 min
Bit rate : 33.9 kb/s
Frame rate : 0.448 FPS
Count of elements : 2802
Stream size : 25.3 MiB (0%)
Title : CHS
Language : Chinese
Default : Yes
Forced : No

Text #2
ID : 4
Format : PGS
Muxing mode : zlib
Codec ID : S_HDMV/PGS
Codec ID/Info : Picture based subtitle format used on BDs/HD-DVDs
Duration : 1 h 44 min
Bit rate : 35.1 kb/s
Frame rate : 0.448 FPS
Count of elements : 2802
Stream size : 26.2 MiB (0%)
Title : CHT
Language : Chinese
Default : No
Forced : No

Text #3
ID : 5
Format : PGS
Muxing mode : zlib
Codec ID : S_HDMV/PGS
Codec ID/Info : Picture based subtitle format used on BDs/HD-DVDs
Duration : 1 h 45 min
Bit rate : 47.4 kb/s
Frame rate : 0.335 FPS
Count of elements : 2114
Stream size : 35.7 MiB (0%)
Title : ENG
Language : English
Default : No
Forced : No

Menu
00:00:00.000 : :第 01 章
00:04:55.962 : :第 02 章
00:17:15.618 : :第 03 章
00:26:47.439 : :第 04 章
00:37:23.158 : :第 05 章
00:43:57.051 : :第 06 章
00:56:30.721 : :第 07 章
01:04:22.525 : :第 08 章
01:13:48.341 : :第 09 章
01:22:36.118 : :第 10 章
01:40:04.665 : :第 11 章
01:45:17.561 : :第 12 章
01:49:47.247 : :第 13 章


部分资源为软字幕,移动端推荐播放器:MxPlayer,nPlayer,infuse ,其他播放器请自行尝试。

部分资源为软字幕,电脑端推荐播放器:PotPlayer,完美解码,KMPLAYER,其他播放器请自行尝试。

下载端推荐纯BT下载软件:qBittorrent,Bitcomet,uTorrent ,其他下载软件请自行尝试。不支持吸血迅雷。



1 个附件 售价 大小 下载 时间

Lucky.Number.Slevin.2006.BluRay.1080p.DTS-HDMA5.1.x264-DreamHD[1LOU.ME].torrent 0 金币 37.49K 1211 次 24天前

#1楼
发帖时间:2024-04-24 08:34:17   |   回复数:0
游客组