Asuka601
隐世仙人♂

[2024] [大陆] [剧情] [WEB-4K] 密战丛林[高码版][国语配音/中文字幕].Firewire.Sniper.2024.2160p.WEB-DL.H265.HQ.DDP5.1-BATWEB 11.

-->

完整标题:密战丛林[高码版][国语配音/中文字幕].Firewire.Sniper.2024.2160p.WEB-DL.H265.HQ.DDP5.1-BATWEB 11.93GB



◎标  题 密战丛林
◎年  代 2024
◎产  地 中国大陆
◎类  别 剧情 / 动作 / 犯罪
◎语  言 汉语普通话
◎IMDb链接 https://www.imdb.com/title//
◎豆瓣链接 https://movie.douban.com/subject/36399382/
◎演  员 谢孟伟 Mengwei Xie
      陆彭 Peng Lu
      张荻 Di Zhang
      韩飞行 Feixing Han

◎简  介
    该影片讲述的是男主颂恩(演员谢孟伟 饰)为了捣毁在当地荼毒一方的黑暗势力,以及背后隐藏更深的人物,不惜舍弃了警察的身份,同时背负着杀父之仇和警队叛徒的骂名,潜伏在黑暗势力中成为了犯罪组织的爪牙,走上了独自和黑暗势力相互博弈的孤独之路,危机四伏。最终和警方里应外合,击碎黑暗的故事。

点击图片可查看大图

软字幕无法在截图上展现,HDR版本/杜比视界版本截图会出现颜色异常,请使用支持的设备播放!

##### MediaInfo ######
General
Unique ID : 84734330654874065755623563524339950681 (0x3FBF3D0C8A0985363734718FC7B86459)
Complete name : Firewire.Sniper.2024.2160p.WEB-DL.H265.HQ.DDP5.1-BATWEB.mkv
Duration : 1 h 23 min
Overall bit rate : 20.4 Mb/s

Video
ID : 1
Format : HEVC
Format/Info : High Efficiency Video Coding
Format profile : Main [email protected]@Main
Codec ID : V_MPEGH/ISO/HEVC
Duration : 1 h 23 min
Bit rate : 19.9 Mb/s
Width : 3 840 pixels
Height : 1 440 pixels
Display aspect ratio : 2.667
Frame rate mode : Constant
Frame rate : 25.000 FPS
Color space : YUV
Chroma subsampling : 4:2:0
Bit depth : 10 bits
Bits/(Pixel*Frame) : 0.144
Stream size : 11.6 GiB (97%)
Default : Yes
Forced : No
Color range : Limited
Color primaries : BT.709
Transfer characteristics : BT.709
Matrix coefficients : BT.709

Audio #1
ID : 2
Format : AAC LC
Format/Info : Advanced Audio Codec Low Complexity
Codec ID : A_AAC-2
Duration : 1 h 23 min
Bit rate : 256 kb/s
Channel(s) : 2 channels
Channel layout : L R
Sampling rate : 44.1 kHz
Frame rate : 43.066 FPS (1024 SPF)
Compression mode : Lossy
Stream size : 153 MiB (1%)
Language : Chinese
Default : Yes
Forced : No

Audio #2
ID : 3
Format : E-AC-3
Format/Info : Enhanced AC-3
Commercial name : Dolby Digital Plus
Codec ID : A_EAC3
Duration : 1 h 23 min
Bit rate mode : Constant
Bit rate : 256 kb/s
Channel(s) : 6 channels
Channel layout : L R C LFE Ls Rs
Sampling rate : 48.0 kHz
Frame rate : 31.250 FPS (1536 SPF)
Compression mode : Lossy
Stream size : 153 MiB (1%)
Title : zh-ch [Dolby Digital Plus 5.1]
Language : Chinese
Service kind : Complete Main
Default : Yes
Forced : No


部分资源为软字幕,移动端推荐播放器:MxPlayer,nPlayer,infuse ,其他播放器请自行尝试。

部分资源为软字幕,电脑端推荐播放器:PotPlayer,完美解码,KMPLAYER,其他播放器请自行尝试。

下载端推荐纯BT下载软件:qBittorrent,Bitcomet,uTorrent ,其他下载软件请自行尝试。不支持吸血迅雷。



1 个附件 售价 大小 下载 时间

Firewire.Sniper.2024.2160p.WEB-DL.H265.HQ.DDP5.1-BATWEB[1LOU.ME].torrent 0 金币 32.41K 1015 次 24天前

#1楼
发帖时间:2024-04-24 00:23:22   |   回复数:0
游客组