Asuka601
隐世仙人♂

[2019] [大陆] [剧情] [WEB-4K] 涩之恋[高码版][国语配音/中文字幕].Se.Zhi.Lian.2019.2160p.WEB-DL.H265.HQ.AAC-BATWEB 11.78GB

-->

完整标题:涩之恋[高码版][国语配音/中文字幕].Se.Zhi.Lian.2019.2160p.WEB-DL.H265.HQ.AAC-BATWEB 11.78GB



◎标  题 涩之恋
◎年  代 2019
◎产  地 中国大陆
◎类  别 剧情 / 爱情
◎上映日期 2019-12-20(中国大陆)
◎IMDb链接 https://www.imdb.com/title//
◎豆瓣链接 https://movie.douban.com/subject/34924593/
◎片  长 83分钟

◎简  介
    志诚是一个杂志社图片主编兼摄影师,纯美的漆子美丧偶带着个女儿独自生活。大学时代的惊鸿一瞥,漆子美的名字便从此长驻心中。多年后两人的一场邂逅偏偏促成了一段爱恋,是迷梦,是真爱,还是内心封藏记忆的魔咒?当爱情来到身边时,会散发出独一无二的香味;爱情离开时,也会把所有的香味全部带走。在安城深秋初冷的街道上,在四季移转的时空背景下,一场自青年时期就已发酵的爱恋,迅速燃烧。仿佛带着魔咒的爱情渐渐变得虚幻起来,无力的抵抗,孤单的抵抗,却越陷越深。怎样留住爱情,永不失去那些迷人的香味……

点击图片可查看大图

软字幕无法在截图上展现,HDR版本/杜比视界版本截图会出现颜色异常,请使用支持的设备播放!

##### MediaInfo ######
General
Complete name : Se.Zhi.Lian.2019.2160p.WEB-DL.H265.HQ.AAC-BATWEB.mp4
Duration : 1 h 23 min
Overall bit rate mode : Variable
Overall bit rate : 20.1 Mb/s

Video
ID : 1
Format : HEVC
Format/Info : High Efficiency Video Coding
Format profile : Main [email protected]@Main
Codec ID : hev1
Codec ID/Info : High Efficiency Video Coding
Duration : 1 h 23 min
Bit rate : 19.9 Mb/s
Width : 3 840 pixels
Height : 1 976 pixels
Display aspect ratio : 1.943
Frame rate mode : Constant
Frame rate : 25.000 FPS
Color space : YUV
Chroma subsampling : 4:2:0
Bit depth : 10 bits
Bits/(Pixel*Frame) : 0.105
Stream size : 11.7 GiB (99%)
Color range : Limited
Color primaries : BT.709
Transfer characteristics : BT.709
Matrix coefficients : BT.709
Codec configuration box : hvcC

Audio
ID : 2
Format : AAC LC
Format/Info : Advanced Audio Codec Low Complexity
Codec ID : mp4a-40-2
Duration : 1 h 23 min
Bit rate mode : Variable
Bit rate : 192 kb/s
Maximum bit rate : 194 kb/s
Channel(s) : 2 channels
Channel layout : L R
Sampling rate : 44.1 kHz
Frame rate : 43.066 FPS (1024 SPF)
Compression mode : Lossy
Stream size : 115 MiB (1%)
Default : Yes
Alternate group : 1


部分资源为软字幕,移动端推荐播放器:MxPlayer,nPlayer,infuse ,其他播放器请自行尝试。

部分资源为软字幕,电脑端推荐播放器:PotPlayer,完美解码,KMPLAYER,其他播放器请自行尝试。

下载端推荐纯BT下载软件:qBittorrent,Bitcomet,uTorrent ,其他下载软件请自行尝试。不支持吸血迅雷。



1 个附件 售价 大小 下载 时间

Se.Zhi.Lian.2019.2160p.WEB-DL.H265.HQ.AAC-BATWEB[1LOU.ME].torrent 0 金币 32.00K 1022 次 24天前

#1楼
发帖时间:2024-04-24 00:21:20   |   回复数:0
游客组