Asuka601
隐世仙人♂

[2020] [欧美] [其它] [WEB-1080P] 碧眼花豹[简繁英字幕].Jade.Eyed.Leopard.2020.1080p.DSNP.WEB-DL.DDP5.1.H264-BATWEB 2.45GB

-->

完整标题:碧眼花豹[简繁英字幕].Jade.Eyed.Leopard.2020.1080p.DSNP.WEB-DL.DDP5.1.H264-BATWEB 2.45GB



◎标  题 碧眼花豹
◎译  名 トト:翡翠色の瞳を持つヒョウ
◎片  名 Jade Eyed Leopard
◎年  代 2020
◎产  地 美国
◎类  别 纪录片
◎语  言 英语
◎上映日期 2020-09-07(美国)
◎IMDb链接 https://www.imdb.com/title//
◎豆瓣链接 https://movie.douban.com/subject/35904123/
◎片  长 45分钟
◎演  员 杰瑞米·艾恩斯 Jeremy Irons

◎简  介
    In Jade Eyed Leopard, follow Toto, a leopard with unusual aquamarine eyes, for the first years of her life as she learns fundamental survival skills.   - National Geographic

点击图片可查看大图

软字幕无法在截图上展现,HDR版本/杜比视界版本截图会出现颜色异常,请使用支持的设备播放!

##### MediaInfo ######
General
Unique ID : 172954394064937454911060598629906511044 (0x821DCDFDD304B2B6EA8A0DE2470FF4C4)
Complete name : Jade.Eyed.Leopard.2020.1080p.DSNP.WEB-DL.DDP5.1.H264-BATWEB.mkv
Duration : 44 min 11 s
Overall bit rate mode : Variable
Overall bit rate : 7 928 kb/s

Video
ID : 1
Format : AVC
Format/Info : Advanced Video Codec
Format profile : High@L4
Format settings : CABAC / 4 Ref Frames
Format settings, CABAC : Yes
Format settings, Reference frames : 4 frames
Codec ID : V_MPEG4/ISO/AVC
Duration : 44 min 11 s
Bit rate mode : Variable
Bit rate : 7 670 kb/s
Maximum bit rate : 12.7 Mb/s
Width : 1 920 pixels
Height : 1 080 pixels
Display aspect ratio : 16:9
Frame rate mode : Constant
Frame rate : 25.000 FPS
Color space : YUV
Chroma subsampling : 4:2:0
Bit depth : 8 bits
Scan type : Progressive
Bits/(Pixel*Frame) : 0.148
Stream size : 2.37 GiB (97%)
Default : Yes
Forced : No
Color range : Limited
Color primaries : BT.709
Transfer characteristics : BT.709
Matrix coefficients : BT.709

Audio
ID : 2
Format : E-AC-3
Format/Info : Enhanced AC-3
Commercial name : Dolby Digital Plus
Codec ID : A_EAC3
Duration : 44 min 11 s
Bit rate mode : Constant
Bit rate : 256 kb/s
Channel(s) : 6 channels
Channel layout : L R C LFE Ls Rs
Sampling rate : 48.0 kHz
Frame rate : 31.250 FPS (1536 SPF)
Compression mode : Lossy
Stream size : 80.9 MiB (3%)
Title : English [Dolby Digital Plus 5.1]
Language : English
Service kind : Complete Main
Default : Yes
Forced : No

Text #1
ID : 3
Format : UTF-8
Codec ID : S_TEXT/UTF8
Codec ID/Info : UTF-8 Plain Text
Duration : 43 min 40 s
Bit rate : 43 b/s
Frame rate : 0.157 FPS
Count of elements : 411
Stream size : 13.9 KiB (0%)
Title : English [SDH]
Language : English
Default : No
Forced : No

Text #2
ID : 4
Format : UTF-8
Codec ID : S_TEXT/UTF8
Codec ID/Info : UTF-8 Plain Text
Duration : 43 min 13 s
Bit rate : 37 b/s
Frame rate : 0.152 FPS
Count of elements : 395
Stream size : 12.0 KiB (0%)
Title : 中文(简体)
Language : Chinese
Default : Yes
Forced : No

Text #3
ID : 5
Format : UTF-8
Codec ID : S_TEXT/UTF8
Codec ID/Info : UTF-8 Plain Text
Duration : 43 min 45 s
Bit rate : 37 b/s
Frame rate : 0.150 FPS
Count of elements : 395
Stream size : 12.0 KiB (0%)
Title : 中文 (繁體)
Language : Chinese
Default : No
Forced : No

Text #4
ID : 6
Format : UTF-8
Codec ID : S_TEXT/UTF8
Codec ID/Info : UTF-8 Plain Text
Duration : 43 min 42 s
Bit rate : 39 b/s
Frame rate : 0.097 FPS
Count of elements : 255
Stream size : 12.6 KiB (0%)
Title : Dansk
Language : Danish
Default : No
Forced : No

Text #5
ID : 7
Format : UTF-8
Codec ID : S_TEXT/UTF8
Codec ID/Info : UTF-8 Plain Text
Duration : 43 min 42 s
Bit rate : 32 b/s
Frame rate : 0.099 FPS
Count of elements : 260
Stream size : 10.4 KiB (0%)
Title : Suomi
Language : Finnish
Default : No
Forced : No

Text #6
ID : 8
Format : UTF-8
Codec ID : S_TEXT/UTF8
Codec ID/Info : UTF-8 Plain Text
Duration : 43 min 44 s
Bit rate : 49 b/s
Frame rate : 0.120 FPS
Count of elements : 314
Stream size : 16.0 KiB (0%)
Title : ???
Language : Korean
Default : No
Forced : No

Text #7
ID : 9
Format : UTF-8
Codec ID : S_TEXT/UTF8
Codec ID/Info : UTF-8 Plain Text
Duration : 43 min 42 s
Bit rate : 38 b/s
Frame rate : 0.101 FPS
Count of elements : 265
Stream size : 12.5 KiB (0%)
Title : Norsk
Language : Norwegian
Default : No
Forced : No

Text #8
ID : 10
Format : UTF-8
Codec ID : S_TEXT/UTF8
Codec ID/Info : UTF-8 Plain Text
Duration : 43 min 42 s
Bit rate : 40 b/s
Frame rate : 0.101 FPS
Count of elements : 265
Stream size : 12.9 KiB (0%)
Title : Svenska
Language : Swedish
Default : No
Forced : No


部分资源为软字幕,移动端推荐播放器:MxPlayer,nPlayer,infuse ,其他播放器请自行尝试。

部分资源为软字幕,电脑端推荐播放器:PotPlayer,完美解码,KMPLAYER,其他播放器请自行尝试。

下载端推荐纯BT下载软件:qBittorrent,Bitcomet,uTorrent ,其他下载软件请自行尝试。不支持吸血迅雷。



1 个附件 售价 大小 下载 时间

Jade.Eyed.Leopard.2020.1080p.DSNP.WEB-DL.DDP5.1.H264-BATWEB[1LOU.ME].torrent 0 金币 8.69K 1043 次 24天前

#1楼
发帖时间:2024-04-24 00:09:27   |   回复数:0
游客组