Asuka601
隐世仙人♂

[更 早] [其它] [剧情] [BD-1080P] 严密监视的列车[简繁英字幕].Closely.Watched.Trains.1966.1080p.BluRay.x264.FLAC.1.0-SONYHD 9.5

-->

完整标题:严密监视的列车[简繁英字幕].Closely.Watched.Trains.1966.1080p.BluRay.x264.FLAC.1.0-SONYHD 9.58GB



◎标  题 严密监视的列车
◎译  名 严密看管的列车 / Closely Observed Trains / Closely Watched Trains
◎片  名 Ostře sledované vlaky
◎年  代 1966
◎产  地 捷克斯洛伐克
◎类  别 剧情 / 喜剧 / 爱情 / 战争
◎语  言 捷克语 / 德语
◎上映日期 1966-11-18(捷克斯洛伐克)
◎IMDb评分 7.6/10 (13566人评价)
◎IMDb链接 https://www.imdb.com/title/tt0060802/
◎豆瓣评分 8.1/10 (5848人评价)
◎豆瓣链接 https://movie.douban.com/subject/1303081/
◎片  长 93分钟
◎导  演 伊日·门泽尔 Jirí Menzel
◎编  剧 博胡米尔·赫拉巴尔 Bohumil Hrabal
      伊日·门泽尔 Jirí Menzel
◎演  员 瓦茨拉夫·内茨卡 Václav Neckár
      约瑟夫·索姆尔 Josef Somr
      伏拉基米尔·布劳德斯基 Vlastimil Brodský
      弗拉迪米尔·瓦伦塔 Vladimír Valenta
      阿洛伊斯·瓦赫克 Alois Vachek
      费迪南德·克鲁塔 Ferdinand Kruta
      Jitka Scoffin Jitka Scoffin
      伊特卡·泽莱诺霍尔斯卡 Jitka Zelenohorská
      Nada Urbánková Nada Urbánková
      Libuse Havelková Libuse Havelková
      科维塔·菲亚洛娃 Kveta Fialová
      Pavla Marsálková Pavla Marsálková
      米拉达·耶日科娃 Milada Jezková
      Karel Hovorka Karel Hovorka
      耶里·柯达特 Jirí Kodet
      法兰提塞·哈萨克 Frantisek Husák
      弗拉迪米尔·赫拉巴内克 Vladimír Hrabánek
      Vratislav Blazek Vratislav Blazek
      伊日·哈莱克 Jirí Hálek
      Václav Kotva Václav Kotva
      帕维尔·兰多夫斯基 Pavel Landovský
      伊日·门泽尔 Jirí Menzel

◎简  介
    二战期间,德国纳粹将战火燃至捷克境内,一时间硝烟四起。然而,在捷克某个乡村火车站内,却生活着一群事不关己、高高挂起的乐天派。谄媚且爱养鸽子的站长马克思(Vladimír Valenta 饰)、风流成性的胡比克(Josef Somr 饰)、成天想着与胡比克鬼混的女站员赞妮克(Vlastimil Brodský 饰)以及羞涩的见习员米罗(Václav Neckár 饰)。正因为有了他们,沉闷的乡间小站才充满着欢声笑语。   米罗与女列车员玛萨(Jitka Scoffin 饰)相爱,但在欢愉之时他却发现自己不举!这令米罗失去活下去的勇气……   本片荣获1968年奥斯卡最佳外语片奖。

##### MediaInfo ######
General
Unique ID : 118670229322685964367390893548959847368 (0x59470E086BA3A47A182110CEC29A53C8)
Complete name : Closely.Watched.Trains.1966.1080p.BluRay.x264.FLAC.1.0-SONYHD.mkv
Duration : 1 h 32 min
Overall bit rate mode : Variable
Overall bit rate : 14.8 Mb/s

Video
ID : 1
Format : AVC
Format/Info : Advanced Video Codec
Format profile : [email protected]
Format settings : CABAC / 4 Ref Frames
Format settings, CABAC : Yes
Format settings, Reference frames : 4 frames
Codec ID : V_MPEG4/ISO/AVC
Duration : 1 h 32 min
Bit rate : 14.4 Mb/s
Width : 1 476 pixels
Height : 1 080 pixels
Display aspect ratio : 4:3
Frame rate mode : Constant
Frame rate : 23.976 (24000/1001) FPS
Color space : YUV
Chroma subsampling : 4:2:0
Bit depth : 8 bits
Scan type : Progressive
Bits/(Pixel*Frame) : 0.378
Stream size : 9.37 GiB (98%)
Writing library : x264 core 164 r3085+55M 938b6d0 t_mod_New [(8 & 10)-bit@all X86_64]
Encoding settings : cabac=1 / ref=4 / deblock=1:-3:-3 / analyse=0x3:0x133 / me=umh / subme=11 / psy=1 / fade_compensate=0.00 / psy_rd=1.00:0.00 / mixed_ref=1 / me_range=48 / chroma_me=1 / trellis=2 / 8x8dct=1 / cqm=0 / deadzone=21,11 / fast_pskip=0 / chroma_qp_offset=-3 / threads=34 / lookahead_threads=8 / sliced_threads=0 / nr=0 / decimate=0 / interlaced=0 / bluray_compat=0 / constrained_intra=0 / fgo=0 / bframes=11 / b_pyramid=2 / b_adapt=2 / b_bias=0 / direct=3 / weightb=1 / open_gop=0 / weightp=2 / keyint=240 / keyint_min=1 / scenecut=40 / intra_refresh=0 / rc_lookahead=72 / rc=crf / mbtree=0 / crf=21.7300 / qcomp=0.60 / qpmin=0:0:0 / qpmax=69:69:69 / qpstep=4 / vbv_maxrate=62500 / vbv_bufsize=78125 / crf_max=0.0 / nal_hrd=none / filler=0 / ip_ratio=1.40 / pb_ratio=1.30 / aq=3:0.70 / aq-sensitivity=10.00 / aq-factor=1.00:1.00:1.00 / aq2=0 / aq3=0
Default : Yes
Forced : No

Audio
ID : 2
Format : FLAC
Format/Info : Free Lossless Audio Codec
Codec ID : A_FLAC
Duration : 1 h 32 min
Bit rate mode : Variable
Bit rate : 280 kb/s
Channel(s) : 1 channel
Channel layout : C
Sampling rate : 48.0 kHz
Frame rate : 11.719 FPS (4096 SPF)
Bit depth : 16 bits
Compression mode : Lossless
Stream size : 186 MiB (2%)
Title : Czech
Writing library : libFLAC 1.2.1 (UTC 2007-09-17)
Language : Czech
Default : Yes
Forced : No

Text #1
ID : 3
ID in the original source medium : 4609 (0x1201)
Format : PGS
Muxing mode : zlib
Codec ID : S_HDMV/PGS
Codec ID/Info : Picture based subtitle format used on BDs/HD-DVDs
Duration : 1 h 31 min
Bit rate : 28.7 kb/s
Frame rate : 0.236 FPS
Count of elements : 1301
Stream size : 18.9 MiB (0%)
Title : chs&eng
Language : Chinese
Default : Yes
Forced : No
Original source medium : Blu-ray

Text #2
ID : 4
ID in the original source medium : 4610 (0x1202)
Format : PGS
Muxing mode : zlib
Codec ID : S_HDMV/PGS
Codec ID/Info : Picture based subtitle format used on BDs/HD-DVDs
Duration : 1 h 31 min
Bit rate : 28.9 kb/s
Frame rate : 0.236 FPS
Count of elements : 1301
Stream size : 19.0 MiB (0%)
Title : cht&eng
Language : Chinese
Default : No
Forced : No
Original source medium : Blu-ray

Text #3
ID : 5
ID in the original source medium : 4611 (0x1203)
Format : PGS
Muxing mode : zlib
Codec ID : S_HDMV/PGS
Codec ID/Info : Picture based subtitle format used on BDs/HD-DVDs
Duration : 1 h 31 min
Bit rate : 16.6 kb/s
Frame rate : 0.236 FPS
Count of elements : 1301
Stream size : 10.9 MiB (0%)
Title : chs
Language : Chinese
Default : No
Forced : No
Original source medium : Blu-ray

Text #4
ID : 6
ID in the original source medium : 4612 (0x1204)
Format : PGS
Muxing mode : zlib
Codec ID : S_HDMV/PGS
Codec ID/Info : Picture based subtitle format used on BDs/HD-DVDs
Duration : 1 h 31 min
Bit rate : 16.8 kb/s
Frame rate : 0.236 FPS
Count of elements : 1301
Stream size : 11.0 MiB (0%)
Title : cht
Language : Chinese
Default : No
Forced : No
Original source medium : Blu-ray

Text #5
ID : 7
ID in the original source medium : 4608 (0x1200)
Format : PGS
Muxing mode : zlib
Codec ID : S_HDMV/PGS
Codec ID/Info : Picture based subtitle format used on BDs/HD-DVDs
Duration : 1 h 32 min
Bit rate : 19.1 kb/s
Frame rate : 0.236 FPS
Count of elements : 1306
Stream size : 12.6 MiB (0%)
Title : eng
Language : English
Default : No
Forced : No
Original source medium : Blu-ray

Menu
00:00:00.000 : en:Chapter 01
00:09:05.836 : en:Chapter 02
00:16:10.010 : en:Chapter 03
00:24:09.614 : en:Chapter 04
00:30:30.912 : en:Chapter 05
00:38:34.729 : en:Chapter 06
00:46:05.471 : en:Chapter 07
00:55:24.195 : en:Chapter 08
01:01:50.248 : en:Chapter 09
01:09:58.986 : en:Chapter 10
01:18:51.184 : en:Chapter 11
01:27:39.170 : en:Chapter 12


部分资源为软字幕,移动端推荐播放器:MxPlayer,nPlayer,infuse ,其他播放器请自行尝试。

部分资源为软字幕,电脑端推荐播放器:PotPlayer,完美解码,KMPLAYER,其他播放器请自行尝试。

下载端推荐纯BT下载软件:qBittorrent,Bitcomet,uTorrent ,其他下载软件请自行尝试。不支持吸血迅雷。



1 个附件 售价 大小 下载 时间

Closely.Watched.Trains.1966.1080p.BluRay.x264.FLAC.1.0-SONYHD[1LOU.ME].torrent 0 金币 26.53K 1162 次 24天前

#1楼
发帖时间:2024-04-23 21:59:22   |   回复数:0
游客组