Asuka601
隐世仙人♂

[2024] [大陆] [WEB-1080P] 谢瑶环传奇之西天胜境[国语配音/中文字幕].2024.1080p.WEB-DL.H264.AAC-BATWEB 1.14GB

-->

完整标题:谢瑶环传奇之西天胜境[国语配音/中文字幕].2024.1080p.WEB-DL.H264.AAC-BATWEB 1.14GB



◎标  题 谢瑶环传奇之西天胜境
◎年  代 2024
◎产  地 中国大陆
◎语  言 汉语普通话
◎上映日期 2024-04-23(中国大陆网络)
◎IMDb链接 https://www.imdb.com/title//
◎豆瓣链接 https://movie.douban.com/subject/35314598/
◎导  演 高战 Chris Collins

点击图片可查看大图

软字幕无法在截图上展现,HDR版本/杜比视界版本截图会出现颜色异常,请使用支持的设备播放!

##### MediaInfo ######
General
Unique ID : 236363366110063480929429865746102286637 (0xB1D1EDAF35F1DA303F1E6D0E066CF92D)
Complete name : The.Legend.of.Xie.Yaohuan.Western.Paradise.2024.1080p.WEB-DL.H264.AAC-BATWEB.mkv
Duration : 1 h 20 min
Overall bit rate : 2 026 kb/s

Video
ID : 1
Format : AVC
Format/Info : Advanced Video Codec
Format profile : High@L4
Format settings : CABAC / 3 Ref Frames
Format settings, CABAC : Yes
Format settings, Reference frames : 3 frames
Codec ID : V_MPEG4/ISO/AVC
Duration : 1 h 20 min
Bit rate : 1 834 kb/s
Width : 1 920 pixels
Height : 1 080 pixels
Display aspect ratio : 16:9
Frame rate mode : Constant
Frame rate : 24.000 FPS
Color space : YUV
Chroma subsampling : 4:2:0
Bit depth : 8 bits
Scan type : Progressive
Bits/(Pixel*Frame) : 0.037
Stream size : 1.03 GiB (91%)
Language : Chinese
Default : Yes
Forced : No
Color range : Limited
Color primaries : BT.709
Transfer characteristics : BT.709
Matrix coefficients : BT.709

Audio
ID : 2
Format : AAC LC
Format/Info : Advanced Audio Codec Low Complexity
Codec ID : A_AAC-2
Duration : 1 h 20 min
Bit rate : 192 kb/s
Channel(s) : 2 channels
Channel layout : L R
Sampling rate : 44.1 kHz
Frame rate : 43.066 FPS (1024 SPF)
Compression mode : Lossy
Stream size : 109 MiB (9%)
Default : No
Forced : No


部分资源为软字幕,移动端推荐播放器:MxPlayer,nPlayer,infuse ,其他播放器请自行尝试。

部分资源为软字幕,电脑端推荐播放器:PotPlayer,完美解码,KMPLAYER,其他播放器请自行尝试。

下载端推荐纯BT下载软件:qBittorrent,Bitcomet,uTorrent ,其他下载软件请自行尝试。不支持吸血迅雷。



1 个附件 售价 大小 下载 时间

2024.1080p.WEB-DL.H264.AAC-BATWEB[1LOU.ME].torrent 0 金币 5.44K 749 次 1月前

#1楼
发帖时间:2024-04-23 20:50:10   |   回复数:0
游客组