travismk
一代宗师

[更 早] [欧美] [剧情] [BD-4K] 48小时 48.Hrs.1982.2160p.WEB-DL.DTS-HD.MA.TrueHD.5.1.DV.MKV.x265-DVSUX 21.96GB

-->

帖子完整标题:48小时 48.Hrs.1982.2160p.WEB-DL.DTS-HD.MA.TrueHD.5.1.DV.MKV.x265-DVSUX 21.96GB



◎标  题 48小时
◎译  名 特赦48小时 / 四十八小时
◎片  名 48 Hrs.
◎年  代 1982
◎产  地 美国
◎类  别 剧情 / 喜剧 / 动作 / 惊悚 / 犯罪
◎语  言 英语
◎上映日期 1982-12-08(美国)
◎IMDb评分 6.9/10 (74979人评价)
◎IMDb链接 https://www.imdb.com/title/tt0083511/
◎豆瓣评分 6.5/10 (387人评价)
◎豆瓣链接 https://movie.douban.com/subject/1301780/
◎片  长 96 分钟
◎导  演 沃尔特·希尔 Walter Hill
◎编  剧 罗杰·斯波蒂斯伍德 Roger Spottiswoode
      沃尔特·希尔 Walter Hill
      拉里·格罗斯 Larry Gross
      斯蒂芬·E.德·索萨 Steven E. de Souza
◎演  员 尼克·诺特 Nick Nolte
      艾迪·墨菲 Eddie Murphy
      安妮特·奥图 Annette O'Toole
      弗兰克·麦克雷 Frank McRae
      詹姆斯·瑞马尔 James Remar
      大卫·帕特里克·凯利 David Patrick Kelly
      索尼·兰哈姆 Sonny Landham
      布里翁·詹姆斯 Brion James
      Kerry Sherman Kerry Sherman
      乔纳森·班克斯 Jonathan Banks
      詹姆斯·基恩 James Keane
      Margot Rose Margot Rose
      丹尼斯·克罗斯比 Denise Crosby
      Olivia Brown Olivia Brown
      Todd Allen Todd Allen
      Bill Dearth Bill Dearth
      内德·道德 Ned Dowd
      吉姆·海尼 Jim Haynie
      杰克·唐蒂博 Jack Thibeau
      桑迪·马丁 Sandy Martin
      Matt Landers Matt Landers
      皮特·杰森 Peter Jason
      克里斯·马尔基 Chris Mulkey
      马塞利诺·桑切斯 Marcelino Sánchez
      Bennie E. Dobbins Bennie E. Dobbins
      Begonya Plaza Begonya Plaza
      罗伊德·卡特莱特 Loyd Catlett
      里德·克鲁克香克斯 Reid Cruickshanks
      R.D. Call R.D. Call
      布伦达·维纳斯 Brenda Venus
      约翰·丹尼斯·约翰斯顿 John Dennis Johnston
      Jack Lightsy Jack Lightsy
      Luis Contreras Luis Contreras
      欧拉·蕾 Ola Ray
      Fritz Ford Fritz Ford
      Kevin O'Neal Kevin O'Neal
      Walter Scott Walter Scott
      John Hauk John Hauk
      劳伦斯·戈登 Lawrence Gordon
      乔·西尔沃 Joel Silver
      詹姆斯·霍纳 James Horner
      Ric Waite Ric Waite
      比利·韦伯 Billy Weber
      马克·华纳 Mark Warner
      Freeman A. Davies Freeman A. Davies
      Judith Holstra Judith Holstra
      约翰·瓦隆 John Vallone
      Richard C. Goddard Richard C. Goddard
      玛丽莲·万斯 Marilyn Vance
      爱德华·F.·恩里克斯 Edouard F. Henriques
      迈克尔·杰曼 Michael Germain
      David Sosna David Sosna

◎标  签 美国 / 喜剧 / 动作 / 犯罪 / 1982 / 警匪 / 美国电影 / 艾迪·墨菲

◎简  介
  杰克凯斯为三藩市一名资深警探,从21岁加入警界以来一直未能有所表现。雷吉汉蒙德为黑人区一名惯犯,从15岁起开始犯案累累。巧的是两人都想力图改变现况,而更巧的是两人竟然在同时间不期而遇,因此引发了一场争斗。
重刑犯艾伯特·刚茨在他的老搭档比利·拜尔的帮助下成功越狱,他们立即杀死了自己的同伙亨利·王,用假名字住进了三藩市的瓦尔登旅馆。年轻干探杰克·盖茨(Nick Nolte饰)郁不得志,酗酒成性。此番受命与同事VanZant 和Algren入住瓦尔登旅馆,调查名叫G. P. Polson的人,不想VanZant 和Algren被艾伯特所害。杰克欲为同事报仇,劝服上司Haden让他独立办案。杰克到监狱探视艾伯特从前的搭档雷吉·汉蒙德(Eddie Murphy饰),以减刑为由,希望雷吉帮助他抓捕艾伯特和比利,雷吉勉强答应,但杰克只能将其带出监狱48小时,更糟...

Video
ID : 1
Format : HEVC
Format/Info : High Efficiency Video Coding
Format profile : Main [email protected]@High
HDR format : Dolby Vision, Version 1.0, dvhe.05.06, BL+RPU
Codec ID : V_MPEGH/ISO/HEVC
Duration : 1 h 36 min
Bit rate : 24.9 Mb/s
Width : 3 840 pixels
Height : 2 076 pixels
Display aspect ratio : 1.85:1
Frame rate mode : Constant
Frame rate : 23.976 (24000/1001/189150) FPS
Color space : YUV
Chroma subsampling : 4:2:0
Bit depth : 10 bits
Bits/(Pixel*Frame) : 0.130
Stream size : 16.8 GiB (77%)
Default : Yes
Forced : No

Audio #1
ID : 2
Format : MLP FBA
Format/Info : Meridian Lossless Packing FBA
Commercial name : Dolby TrueHD
Codec ID : A_TRUEHD
Duration : 1 h 36 min
Bit rate mode : Variable
Bit rate : 3 273 kb/s
Maximum bit rate : 4 629 kb/s
Channel(s) : 6 channels
Channel layout : L R C LFE Ls Rs
Sampling rate : 48.0 kHz
Frame rate : 1 200.000 FPS (40 SPF)
Compression mode : Lossless
Stream size : 2.21 GiB (10%)
Title : TrueHD 5.1
Language : English
Default : Yes
Forced : No

Audio #2
ID : 3
Format : DTS XLL
Format/Info : Digital Theater Systems
Commercial name : DTS-HD Master Audio
Codec ID : A_DTS
Duration : 1 h 36 min
Bit rate mode : Variable
Bit rate : 3 738 kb/s
Channel(s) : 6 channels
Channel layout : C L R Ls Rs LFE
Sampling rate : 48.0 kHz
Frame rate : 93.750 FPS (512 SPF)
Bit depth : 24 bits
Compression mode : Lossless
Stream size : 2.52 GiB (11%)
Title : DTS-HD MA 5.1
Language : English
Default : No
Forced : No

Audio #3
ID : 4
Format : AC-3
Format/Info : Audio Coding 3
Commercial name : Dolby Digital
Codec ID : A_AC3
Duration : 1 h 36 min
Bit rate mode : Constant
Bit rate : 384 kb/s
Channel(s) : 6 channels
Channel layout : L R C LFE Ls Rs
Sampling rate : 48.0 kHz
Frame rate : 31.250 FPS (1536 SPF)
Compression mode : Lossy
Stream size : 265 MiB (1%)
Title : DD 5.1
Language : English
Service kind : Complete Main
Default : Yes
Forced : No

Text #1
ID : 5
Format : UTF-8
Codec ID : S_TEXT/UTF8
Codec ID/Info : UTF-8 Plain Text
Duration : 1 h 29 min
Bit rate : 42 b/s
Frame rate : 0.120 FPS
Count of elements : 640
Stream size : 27.4 KiB (0%)
Language : English
Default : Yes
Forced : No

Text #2
ID : 6
Format : UTF-8
Codec ID : S_TEXT/UTF8
Codec ID/Info : UTF-8 Plain Text
Duration : 1 h 31 min
Bit rate : 58 b/s
Frame rate : 0.217 FPS
Count of elements : 1187
Stream size : 39.2 KiB (0%)
Title : French European
Language : French
Default : No
Forced : No

Text #3
ID : 7
Format : PGS
Muxing mode : zlib
Codec ID : S_HDMV/PGS
Codec ID/Info : Picture based subtitle format used on BDs/HD-DVDs
Duration : 1 h 29 min
Bit rate : 25.3 kb/s
Frame rate : 0.239 FPS
Count of elements : 1280
Stream size : 16.1 MiB (0%)
Language : English
Default : No
Forced : No

Text #4
ID : 8
Format : PGS
Muxing mode : zlib
Codec ID : S_HDMV/PGS
Codec ID/Info : Picture based subtitle format used on BDs/HD-DVDs
Duration : 1 h 31 min
Bit rate : 49.6 kb/s
Frame rate : 0.480 FPS
Count of elements : 2646
Stream size : 32.6 MiB (0%)
Title : SDH
Language : English
Default : No
Forced : No

Text #5
ID : 9
Format : PGS
Muxing mode : zlib
Codec ID : S_HDMV/PGS
Codec ID/Info : Picture based subtitle format used on BDs/HD-DVDs
Duration : 1 h 29 min
Bit rate : 27.2 kb/s
Frame rate : 0.254 FPS
Count of elements : 1356
Stream size : 17.3 MiB (0%)
Language : German
Default : No
Forced : No

Text #6
ID : 10
Format : PGS
Muxing mode : zlib
Codec ID : S_HDMV/PGS
Codec ID/Info : Picture based subtitle format used on BDs/HD-DVDs
Duration : 1 h 31 min
Bit rate : 34.8 kb/s
Frame rate : 0.434 FPS
Count of elements : 2374
Stream size : 22.7 MiB (0%)
Language : French
Default : No
Forced : No

Text #7
ID : 11
Format : PGS
Muxing mode : zlib
Codec ID : S_HDMV/PGS
Codec ID/Info : Picture based subtitle format used on BDs/HD-DVDs
Duration : 1 h 29 min
Bit rate : 20.8 kb/s
Frame rate : 0.362 FPS
Count of elements : 1936
Stream size : 13.2 MiB (0%)
Language : Japanese
Default : No
Forced : No

Text #8
ID : 12
Format : PGS
Muxing mode : zlib
Codec ID : S_HDMV/PGS
Codec ID/Info : Picture based subtitle format used on BDs/HD-DVDs
Duration : 1 h 31 min
Bit rate : 29.1 kb/s
Frame rate : 0.289 FPS
Count of elements : 1578
Stream size : 18.9 MiB (0%)
Language : Spanish
Default : No
Forced : No

Text #9
ID : 13
Format : PGS
Muxing mode : zlib
Codec ID : S_HDMV/PGS
Codec ID/Info : Picture based subtitle format used on BDs/HD-DVDs
Duration : 1 h 29 min
Bit rate : 26.8 kb/s
Frame rate : 0.249 FPS
Count of elements : 1332
Stream size : 17.1 MiB (0%)
Language : Italian
Default : No
Forced : No

Text #10
ID : 14
Format : PGS
Muxing mode : zlib
Codec ID : S_HDMV/PGS
Codec ID/Info : Picture based subtitle format used on BDs/HD-DVDs
Duration : 1 h 29 min
Bit rate : 23.9 kb/s
Frame rate : 0.240 FPS
Count of elements : 1284
Stream size : 15.3 MiB (0%)
Language : Danish
Default : No
Forced : No

Text #11
ID : 15
Format : PGS
Muxing mode : zlib
Codec ID : S_HDMV/PGS
Codec ID/Info : Picture based subtitle format used on BDs/HD-DVDs
Duration : 1 h 29 min
Bit rate : 27.5 kb/s
Frame rate : 0.236 FPS
Count of elements : 1260
Stream size : 17.6 MiB (0%)
Language : Dutch
Default : No
Forced : No

Text #12
ID : 16
Format : PGS
Muxing mode : zlib
Codec ID : S_HDMV/PGS
Codec ID/Info : Picture based subtitle format used on BDs/HD-DVDs
Duration : 1 h 29 min
Bit rate : 24.9 kb/s
Frame rate : 0.242 FPS
Count of elements : 1292
Stream size : 15.8 MiB (0%)
Language : Norwegian
Default : No
Forced : No

Text #13
ID : 17
Format : PGS
Muxing mode : zlib
Codec ID : S_HDMV/PGS
Codec ID/Info : Picture based subtitle format used on BDs/HD-DVDs
Duration : 1 h 29 min
Bit rate : 26.7 kb/s
Frame rate : 0.239 FPS
Count of elements : 1276
Stream size : 17.0 MiB (0%)
Language : Finnish
Default : No
Forced : No

Text #14
ID : 18
Format : PGS
Muxing mode : zlib
Codec ID : S_HDMV/PGS
Codec ID/Info : Picture based subtitle format used on BDs/HD-DVDs
Duration : 1 h 29 min
Bit rate : 25.9 kb/s
Frame rate : 0.237 FPS
Count of elements : 1270
Stream size : 16.5 MiB (0%)
Language : Swedish
Default : No
Forced : No

Text #15
ID : 19
Format : PGS
Muxing mode : zlib
Codec ID : S_HDMV/PGS
Codec ID/Info : Picture based subtitle format used on BDs/HD-DVDs
Duration : 1 h 31 min
Bit rate : 27.1 kb/s
Frame rate : 0.244 FPS
Count of elements : 1332
Stream size : 17.6 MiB (0%)
Language : Portuguese
Default : No
Forced : No

Menu
00:00:00.000 : en:Chapter 01
00:05:11.186 : en:Chapter 02
00:10:51.151 : en:Chapter 03
00:20:02.577 : en:Chapter 04
00:24:10.867 : en:Chapter 05
00:30:00.967 : en:Chapter 06
00:36:52.837 : en:Chapter 07
00:46:17.360 : en:Chapter 08
00:57:28.615 : en:Chapter 09
01:06:19.187 : en:Chapter 10
01:11:17.027 : en:Chapter 11
01:15:49.049 : en:Chapter 12
01:19:29.352 : en:Chapter 13
01:29:36.209 : en:Chapter 14
01:32:28.923 : en:Chapter 15





1 个附件 售价 大小 下载 时间

48.Hrs.1982.2160p.WEB-DL.DTS-HD.MA.TrueHD.5.1.DV.MKV.x265-DVSUX.torrent 0 金币 28.10K 126 次 4天前

#1楼
发帖时间:2022-08-06 11:13:13   |   回复数:0
游客组