squallzhao
一代宗师

[2022] [美国] [动作] [BD-1080P] 特工游戏 Agent.Game.2022.1080p.BluRay.x264.DTS-HD.MA.5.1-MT 10.56GB

-->

帖子完整标题:特工游戏 Agent.Game.2022.1080p.BluRay.x264.DTS-HD.MA.5.1-MT 10.56GB



◎译  名 特工游戏
◎片  名 Agent Game
◎年  代 2022
◎产  地 美国
◎类  别 动作
◎语  言 英语
◎上映日期 2022-04-08(美国)
◎IMDb链接 https://www.imdb.com/title/tt14168394/
◎豆瓣评分 4.7/10 (73人评价)
◎豆瓣链接 https://movie.douban.com/subject/35442929/
◎片  长 90分钟
◎导  演 格兰特·S·约翰逊 Grant S. Johnson (id:1460530)
◎编  剧 泰勒·科尼 Tyler W. Konney (id:1379282)
◎演  员 梅尔·吉布森 Mel Gibson (id:1054530)
      凯瑟琳·麦克纳马拉 Katherine McNamara (id:1343784)
      德蒙特·莫罗尼 Dermot Mulroney (id:1040534)
      凯蒂·卡西迪 Katie Cassidy (id:1036318)
      瑞斯·考罗 Rhys Coiro (id:1032074)
      安妮·伊隆泽 Annie Ilonzeh (id:1240107)
      詹森·艾萨克 Jason Isaacs (id:1017916)
      巴克德·阿巴蒂 Barkhad Abdi (id:1335066)
      阿丹·坎托 Adan Canto (id:1327521)

◎简  介
  詹森·艾萨克、巴克德·阿巴蒂([菲利普船长])、阿丹·坎托(《指定幸存者》)加盟出演间谍题材惊悚片[特工游戏](Agent Game,暂译)。格兰特·S·约翰逊执导,泰勒·科尼([深海越狱])、迈克·朗格共同操刀剧本。此前加盟的卡司包括德蒙特·莫罗尼、凯蒂·卡西迪、瑞斯·考罗、安妮·伊隆泽、梅尔·吉布森。该片讲述中情局官员哈里斯(莫罗尼饰)参与了拘留和重新安置外国国民进行审讯的任务。当哈里斯的上司(艾萨克斯)被谋杀时,他发现自己成了杀害一名被拘留者(阿巴蒂饰)的替罪羊,他必须躲避被派去抓他的一队特工(坎托、卡西迪、考罗饰),他们由一个无情的双面间谍(伊隆泽饰)领导。吉布森饰演一名流氓情报官员,负责追捕和杀害哈里斯的私下行动。

Video
ID : 1
Format : AVC
Format/Info : Advanced Video Codec
Format profile : [email protected]
Format settings : CABAC / 4 Ref Frames
Format settings, CABAC : Yes
Format settings, Reference frames : 4 frames
Codec ID : V_MPEG4/ISO/AVC
Duration : 1 h 30 min
Bit rate : 13.1 Mb/s
Width : 1 920 pixels
Height : 1 038 pixels
Display aspect ratio : 1.85:1
Frame rate mode : Constant
Frame rate : 23.976 (24000/1001/189150) FPS
Color space : YUV
Chroma subsampling : 4:2:0
Bit depth : 8 bits
Scan type : Progressive
Bits/(Pixel*Frame) : 0.274
Stream size : 8.25 GiB (78%)
Writing library : x264 core 157 r2938 2b00a84 [email protected] Mod
Encoding settings : cabac=1 / ref=4 / deblock=1:-3:-3 / analyse=0x3:0x133 / me=umh / subme=10 / psy=1 / psy_rd=1.05:0.00 / mixed_ref=1 / me_range=32 / chroma_me=1 / trellis=2 / 8x8dct=1 / cqm=0 / deadzone=21,11 / fast_pskip=0 / chroma_qp_offset=-2 / threads=12 / lookahead_threads=2 / sliced_threads=0 / nr=0 / decimate=0 / interlaced=0 / bluray_compat=0 / constrained_intra=0 / bframes=8 / b_pyramid=2 / b_adapt=2 / b_bias=0 / direct=3 / weightb=1 / open_gop=0 / weightp=2 / keyint=250 / keyint_min=24 / scenecut=40 / intra_refresh=0 / rc_lookahead=250 / rc=crf / mbtree=0 / crf=16.8 / qcomp=0.60 / qpmin=0 / qpmax=69 / qpstep=4 / vbv_maxrate=62500 / vbv_bufsize=78125 / crf_max=0.0 / nal_hrd=none / filler=0 / ip_ratio=1.30 / pb_ratio=1.20 / aq=3:0.80
Language : English
Default : Yes
Forced : No
Color range : Limited
Color primaries : BT.709
Matrix coefficients : BT.709

Audio
ID : 2
Format : DTS XLL
Format/Info : Digital Theater Systems
Commercial name : DTS-HD Master Audio
Codec ID : A_DTS
Duration : 1 h 30 min
Bit rate mode : Variable
Bit rate : 3 639 kb/s
Channel(s) : 6 channels
Channel layout : C L R Ls Rs LFE
Sampling rate : 48.0 kHz
Frame rate : 93.750 FPS (512 SPF)
Bit depth : 24 bits
Compression mode : Lossless
Stream size : 2.29 GiB (22%)
Language : English
Default : Yes
Forced : No

Text #1
ID : 3
Format : UTF-8
Codec ID : S_TEXT/UTF8
Codec ID/Info : UTF-8 Plain Text
Duration : 1 h 22 min
Bit rate : 59 b/s
Count of elements : 1083
Stream size : 36.1 KiB (0%)
Language : English
Default : Yes
Forced : No

Text #2
ID : 4
Format : UTF-8
Codec ID : S_TEXT/UTF8
Codec ID/Info : UTF-8 Plain Text
Duration : 1 h 23 min
Bit rate : 64 b/s
Count of elements : 1203
Stream size : 39.1 KiB (0%)
Title : SDH
Language : English
Default : No
Forced : No

Text #3
ID : 5
Format : PGS
Muxing mode : zlib
Codec ID : S_HDMV/PGS
Codec ID/Info : Picture based subtitle format used on BDs/HD-DVDs
Duration : 1 h 23 min
Bit rate : 40.2 kb/s
Count of elements : 2452
Stream size : 23.9 MiB (0%)
Language : English
Default : No
Forced : No

Menu
00:00:00.000 : en:Chapter 01
00:06:31.558 : en:Chapter 02
00:09:06.129 : en:Chapter 03
00:15:50.491 : en:Chapter 04
00:22:57.376 : en:Chapter 05
00:29:20.801 : en:Chapter 06
00:31:53.620 : en:Chapter 07
00:36:58.133 : en:Chapter 08
00:41:44.836 : en:Chapter 09
00:46:15.022 : en:Chapter 10
00:50:23.103 : en:Chapter 11
00:56:16.748 : en:Chapter 12
01:02:58.191 : en:Chapter 13
01:08:56.132 : en:Chapter 14
01:14:29.298 : en:Chapter 15
01:22:17.808 : en:Chapter 16





1 个附件 售价 大小 下载 时间

Agent.Game.2022.1080p.BluRay.x264.DTS-HD.MA.5.1-MT.torrent 0 金币 13.82K 1540 次 14天前

#1楼
发帖时间:2022-05-14 15:11:38   |   回复数:0
游客组