topgood
一派掌门

[2020] [其他] [WEB-1080P] 比尔·马厄:胜利自家始 Bill.Maher.Victory.Begins.at.Home.2003.1080p.WEBRip.x264-RARBG 1.14G

-->

帖子完整标题:比尔·马厄:胜利自家始 Bill.Maher.Victory.Begins.at.Home.2003.1080p.WEBRip.x264-RARBG 1.14GB



◎译  名 比尔·马厄:胜利自家始
◎片  名 Bill Maher: Victory Begins at Home
◎年  代 
◎产  地 USA
◎类  别 
◎语  言 english
◎上映日期 2003-07-19
◎豆瓣评分 8.4/10 from 89 users
◎豆瓣链接 https://movie.douban.com/subject/2173589/
◎导  演 John Moffitt John Moffitt
◎编  剧 比尔·马厄 Bill Maher
◎主  演 比尔·马厄 Bill Maher

◎标  签 美国 | Stand-up | HBO | BillMaher | Comedy | Bill_Maher | 脱口秀 | 2003

◎简  介

  Comedian Bill Maher's Tony Award-nominated Broadway standup show, Bill Maher: Victory Begins at Home, will return to New York, July 17-19, 2003. The final performance at the Hudson Theatre (which is not technically a Broadway house though it's in the midtown theatre district) will be filmed live for HBO. In the show, Maher addresses contemporary political, social and cultural topics -- Iraq, President Bush and the so called Axis of Evil. The opinionated Maher said about Victory Begins at Home: "We've heard everything about the War on Terrorism except what we can actually do to help win it. The government used to do that for us through propaganda (the positive kind) posters, so taking my cue from the great old posters of World War I and World War II ('Loose Lips Sink Ships,' 'Buy War Bonds,' 'Plant a Victory Garden,' etc.) I commissioned artists to paint the posters our government today should be putting out to help us win this war.

Video
ID : 1
Format : AVC
Format/Info : Advanced Video Codec
Format profile : [email protected]
Format settings : CABAC / 4 Ref Frames
Format settings, CABAC : Yes
Format settings, Reference frames : 4 frames
Codec ID : avc1
Codec ID/Info : Advanced Video Coding
Duration : 59 min 41 s
Bit rate : 2 500 kb/s
Width : 1 440 pixels
Height : 1 080 pixels
Display aspect ratio : 4:3
Frame rate mode : Constant
Frame rate : 29.970 (29970/1000/189150) FPS
Color space : YUV
Chroma subsampling : 4:2:0
Bit depth : 8 bits
Scan type : Progressive
Bits/(Pixel*Frame) : 0.054
Stream size : 1.04 GiB (91%)
Writing library : x264 core 152 r2851M ba24899
Encoding settings : cabac=1 / ref=4 / deblock=1:-1:-1 / analyse=0x3:0x113 / me=umh / subme=9 / psy=1 / psy_rd=1.00:0.15 / mixed_ref=1 / me_range=24 / chroma_me=1 / trellis=2 / 8x8dct=1 / cqm=0 / deadzone=21,11 / fast_pskip=1 / chroma_qp_offset=-3 / threads=16 / lookahead_threads=4 / sliced_threads=0 / nr=0 / decimate=1 / interlaced=0 / bluray_compat=0 / constrained_intra=0 / bframes=3 / b_pyramid=2 / b_adapt=2 / b_bias=0 / direct=3 / weightb=1 / open_gop=0 / weightp=2 / keyint=250 / keyint_min=25 / scenecut=40 / intra_refresh=0 / rc_lookahead=50 / rc=2pass / mbtree=1 / bitrate=2500 / ratetol=1.0 / qcomp=0.60 / qpmin=0 / qpmax=69 / qpstep=4 / cplxblur=20.0 / qblur=0.5 / vbv_maxrate=31250 / vbv_bufsize=31250 / nal_hrd=none / filler=0 / ip_ratio=1.40 / aq=3:1.00
Encoded date : UTC 2021-08-02 19:55:39
Tagged date : UTC 2021-08-02 19:55:39
Codec configuration box : avcC

Audio
ID : 2
Format : AAC LC
Format/Info : Advanced Audio Codec Low Complexity
Codec ID : mp4a-40-2
Duration : 59 min 42 s
Bit rate mode : Constant
Bit rate : 224 kb/s
Channel(s) : 2 channels
Channel layout : L R
Sampling rate : 48.0 kHz
Frame rate : 46.875 FPS (1024 SPF)
Compression mode : Lossy
Stream size : 95.7 MiB (8%)
Language : English
Default : Yes
Alternate group : 1
Encoded date : UTC 2021-08-02 19:55:39
Tagged date : UTC 2021-08-02 19:55:39





1 个附件 售价 大小 下载 时间

Bill.Maher.Victory.Begins.at.Home.2003.1080p.WEBRip.x264-RARBG.torrent 0 金币 12.16K 203 次 1月前

#1楼
发帖时间:2021-08-03 10:00:27   |   回复数:0
游客组