squallzhao
武林盟主

[2017] [欧美] [剧情] [WEB-1080P] 爱在爱之后/爱无止境 Love.After.Love.2017.1080p.AMZN.WEBRip.DDP5.1.x264-Candial 8.72GB

-->

帖子完整标题:爱在爱之后/爱无止境 Love.After.Love.2017.1080p.AMZN.WEBRip.DDP5.1.x264-Candial 8.72GB



◎译  名 爱在爱之后/爱无止境
◎片  名 Love After Love
◎年  代 2017
◎产  地 美国
◎类  别 剧情
◎语  言 英语
◎上映日期 2017-04-22(翠贝卡电影节)
◎豆瓣评分 5.9/10 from 129 users
◎豆瓣链接 https://movie.douban.com/subject/26965136/
◎片  长 91分钟
◎导  演 罗素·哈尔伯 Russell Harbaugh
◎编  剧 埃里克·门德尔松 Eric Mendelsohn / 罗素·哈尔伯 Russell Harbaugh
◎主  演 克里斯·奥多德 Chris O'Dowd
      安迪·麦克道威尔 Andie MacDowell
      朱丽叶·赖伦斯 Juliet Rylance
      德丽·海明威 Dree Hemingway

◎标  签 美国 | 家庭 | 美国电影 | 剧情 | 爱情 | 生活流 | 美国独立电影 | loss

◎简  介

  格雷与妻子苏珊娜同为大学的戏剧老师,两人幸福地生活在一起。格雷罹患癌症弥留之际,他叫来儿子克里斯、尼克以及一众学生一同聚会。悉心照顾父亲的尼克却和与自己一同前来的女友丽贝卡产生矛盾,出言不逊,难以调和。格雷去世以后,二人宣布分手。面对亲人的离世,苏珊娜、克里斯和尼克都产生了不同程度的心理问题,他们暴躁、失态、孤独。此时的尼克与格雷的学生艾米莉互生好感,艾米莉带给尼克心灵上的慰籍,两人很快订婚。同时,尼克也意识到自己曾带给丽贝卡的伤害,他找到丽贝卡求得谅解。身为作家的克里斯也在自己的演讲中,将父亲走后的种种情绪倾诉出来,走出低谷。而最为难过的苏珊娜也在长期的孤独过后遇到了自己可以寄托余生的男人。

Video
ID : 1
Format : AVC
Format/Info : Advanced Video Codec
Format profile : [email protected]
Format settings : CABAC / 4 Ref Frames
Format settings, CABAC : Yes
Format settings, Reference frames : 4 frames
Codec ID : V_MPEG4/ISO/AVC
Duration : 1 h 32 min
Bit rate : 12.8 Mb/s
Width : 1 920 pixels
Height : 1 080 pixels
Display aspect ratio : 16:9
Frame rate mode : Constant
Frame rate : 23.976 (24000/1001/189150) FPS
Color space : YUV
Chroma subsampling : 4:2:0
Bit depth : 8 bits
Scan type : Progressive
Bits/(Pixel*Frame) : 0.258
Stream size : 8.31 GiB (95%)
Language : English
Default : Yes
Forced : No
Color range : Limited
Color primaries : BT.709
Transfer characteristics : BT.709
Matrix coefficients : BT.709

Audio
ID : 2
Format : E-AC-3
Format/Info : Enhanced AC-3
Commercial name : Dolby Digital Plus
Codec ID : A_EAC3
Duration : 1 h 32 min
Bit rate mode : Constant
Bit rate : 640 kb/s
Channel(s) : 6 channels
Channel layout : L R C LFE Ls Rs
Sampling rate : 48.0 kHz
Frame rate : 31.250 FPS (1536 SPF)
Compression mode : Lossy
Stream size : 424 MiB (5%)
Language : English
Service kind : Complete Main
Default : Yes
Forced : No

Text
ID : 3
Format : UTF-8
Codec ID : S_TEXT/UTF8
Codec ID/Info : UTF-8 Plain Text
Duration : 1 h 31 min
Bit rate : 57 b/s
Count of elements : 1359
Stream size : 38.5 KiB (0%)
Language : English
Default : Yes
Forced : No





1 个附件 售价 大小 下载 时间

Love.After.Love.2017.1080p.AMZN.WEBRip.DDP5.1.x264-Candial.torrent 0 金币 44.26K 392 次 11天前

#1楼
发帖时间:2021-06-11 23:36:28   |   回复数:0
游客组