BILL36
隐世仙人♂

[2024] [泰国] [剧情] [WEB-1080P] 我们是[第07集][简繁英字幕].We.Are.S01.2024.1080p.IQ.WEB-DL.H264.AAC-BlackTV 0.73GB

-->

完整标题:我们是[第07集][简繁英字幕].We.Are.S01.2024.1080p.IQ.WEB-DL.H264.AAC-BlackTV 0.73GB



◎标  题 我们是
◎译  名 Weare...คือเรารักกัน / We Are / Khue Rao Rak Kan / 我们彼此相爱 / 相爱的我们
◎片  名 We are คือเรารักกัน
◎年  代 2024
◎产  地 泰国
◎类  别 剧情 / 爱情 / 同性
◎语  言 泰语
◎IMDb评分 9.1/10 (24人评价)
◎IMDb链接 https://www.imdb.com/title/tt29768087/
◎豆瓣评分 7.6/10 (250人评价)
◎豆瓣链接 https://movie.douban.com/subject/35657328/
◎导  演 西瓦·萨瓦玛尼固 Siwaj Sawatmaneekul
◎演  员 纳拉维特·勒拉格苏 Naravit Lertratkosum
      普威·丹萨优 Phuwin Tangsakyuen
      吉迪朋·瑟利维查亚萨瓦 Kittiphop Sereevichayasawat
      塔纳通·詹塔沃拉甘 Tharatorn Jantharaworakarn
      塔纳温·坡查伦拉特 Thanawin Pholcharoenrat
      纳塔里·瓦拉功勒希 Natarit Worakornlertsith
      塔纳本·吉塔澜 Thanaboon Kiatniran
      帕努罗杰·查洛夫斯基珀纳尔塔维 Phanuroj Chalermkijporntavee
      塔尼·甘莫塔拉侬 Thanik Kamontharanon
      塔察宫·波露娅楠 Tatchakorn Boonlapayanan
      布·米帕迪 Poon Mitpakdee
      提拉得·威提帕尼 Teeradech Vitheepanich
      查亚功·朱塔玛斯 Chayakorn Jutamas
      吉拉提·彭马尼 Kirati Puangmalee
      塔纳本·万罗西力侬 Thanaboon Wanlopsirinun
      维拉育特·查苏克 Weerayut Chansook

◎简  介
    ~~改编自小说《我们是》...ภารวี.的คือ เรารักกัน'   ~~ Adapted from the novel 'We are... คือ เรารักกัน' by ภารวี.

部分资源为软字幕,移动端推荐播放器:MxPlayer,nPlayer,infuse ,其他播放器请自行尝试。

部分资源为软字幕,电脑端推荐播放器:PotPlayer,完美解码,KMPLAYER,其他播放器请自行尝试。

下载端推荐纯BT下载软件:qBittorrent,Bitcomet,uTorrent ,其他下载软件请自行尝试。不支持吸血迅雷。

##### MediaInfo ######
General
Unique ID : 143534660390524900792746464278834786634 (0x6BFBC52205292F99A58E14A70557314A)
Complete name : We.Are.S01E07.2024.1080p.IQ.WEB-DL.H264.AAC-BlackTV.mkv
Duration : 56 min 5 s
Overall bit rate : 1 851 kb/s

Video
ID : 1
Format : AVC
Format/Info : Advanced Video Codec
Format profile : High@L4
Format settings : CABAC / 3 Ref Frames
Format settings, CABAC : Yes
Format settings, Reference frames : 3 frames
Codec ID : V_MPEG4/ISO/AVC
Duration : 56 min 5 s
Bit rate : 1 659 kb/s
Width : 1 920 pixels
Height : 1 080 pixels
Display aspect ratio : 16:9
Frame rate mode : Constant
Frame rate : 25.000 FPS
Color space : YUV
Chroma subsampling : 4:2:0
Bit depth : 8 bits
Scan type : Progressive
Bits/(Pixel*Frame) : 0.032
Stream size : 666 MiB (90%)
Language : Thai
Default : Yes
Forced : No
Color range : Limited
Color primaries : BT.709
Transfer characteristics : BT.709
Matrix coefficients : BT.709

Audio
ID : 2
Format : AAC LC
Format/Info : Advanced Audio Codec Low Complexity
Codec ID : A_AAC-2
Duration : 56 min 5 s
Bit rate : 192 kb/s
Channel(s) : 2 channels
Channel layout : L R
Sampling rate : 44.1 kHz
Frame rate : 43.066 FPS (1024 SPF)
Compression mode : Lossy
Stream size : 76.1 MiB (10%)
Title : Thai [AAC2.0]
Language : Thai
Default : No
Forced : No

Text #1
ID : 3
Format : UTF-8
Codec ID : S_TEXT/UTF8
Codec ID/Info : UTF-8 Plain Text
Duration : 55 min 48 s
Bit rate : 58 b/s
Frame rate : 0.343 FPS
Count of elements : 1147
Stream size : 23.8 KiB (0%)
Title : Simplified Chinese
Language : Chinese
Default : Yes
Forced : No

Text #2
ID : 4
Format : UTF-8
Codec ID : S_TEXT/UTF8
Codec ID/Info : UTF-8 Plain Text
Duration : 55 min 47 s
Bit rate : 58 b/s
Frame rate : 0.341 FPS
Count of elements : 1142
Stream size : 23.9 KiB (0%)
Title : Traditional Chinese
Language : Chinese
Default : No
Forced : No

Text #3
ID : 5
Format : UTF-8
Codec ID : S_TEXT/UTF8
Codec ID/Info : UTF-8 Plain Text
Duration : 54 min 26 s
Bit rate : 58 b/s
Frame rate : 0.314 FPS
Count of elements : 1026
Stream size : 23.3 KiB (0%)
Title : English
Language : English
Default : No
Forced : No


点击图片可查看大图

软字幕无法在截图上展现,HDR版本/杜比视界版本截图会出现颜色异常,请使用支持的设备播放!



1 个附件 售价 大小 下载 时间

We.Are.S01.2024.1080p.IQ.WEB-DL.H264.AAC-BlackTV[1LOU.ME].torrent 0 金币 4.27K 126 次 8天前

#1楼
发帖时间:2024-05-16 08:58:37   |   回复数:0
游客组