BILL36
隐世仙人♂

[2024] [大陆] [动画] [WEB-1080P] 云中居三子[第23-24集][国语配音/中文字幕].Yun.Zhong.Ju.San.Zi.S01.2024.1080p.WEB-DL.H264.AAC-Zer

-->

完整标题:云中居三子[第23-24集][国语配音/中文字幕].Yun.Zhong.Ju.San.Zi.S01.2024.1080p.WEB-DL.H264.AAC-ZeroTV 0.35GB



◎标  题 云中居三子
◎译  名 The Mirage House in the Clouds
◎年  代 2024
◎产  地 中国大陆
◎类  别 动画
◎语  言 汉语普通话
◎IMDb链接 https://www.imdb.com/title//
◎豆瓣链接 https://movie.douban.com/subject/35517385/
◎演  员 锦鲤 Jinwen Chen
      刘明月 Mingyue Liu
      李兰陵 Lanling Li

◎简  介
    1、国风加冒险,三个少年并肩作战最终摧毁黑山老妖企图控制人间的故事   2、动画番剧将通过对经典“中国动画学派”、的致敬和回归,力求以CG技术打造一部具有中国气质、中国风格的新时代中国动画学派作品。   3、先导短片在全球24个国家的38个电影节中入围和获奖,并斩获白俄罗斯Animaevka国际动画节全场大奖等8个重量级国际奖项。

部分资源为软字幕,移动端推荐播放器:MxPlayer,nPlayer,infuse ,其他播放器请自行尝试。

部分资源为软字幕,电脑端推荐播放器:PotPlayer,完美解码,KMPLAYER,其他播放器请自行尝试。

下载端推荐纯BT下载软件:qBittorrent,Bitcomet,uTorrent ,其他下载软件请自行尝试。不支持吸血迅雷。

##### MediaInfo ######
General
Complete name : 云中居三子.Yun.Zhong.Ju.San.Zi.S01E23.2024.1080p.WEB-DL.H264.AAC-ZeroTV.mp4
Duration : 13 min 31 s
Overall bit rate mode : Variable
Overall bit rate : 1 818 kb/s

Video
ID : 1
Format : AVC
Format/Info : Advanced Video Codec
Format profile : High@L4
Format settings : CABAC / 3 Ref Frames
Format settings, CABAC : Yes
Format settings, Reference frames : 3 frames
Codec ID : avc1
Codec ID/Info : Advanced Video Coding
Duration : 13 min 31 s
Bit rate : 1 622 kb/s
Width : 1 920 pixels
Height : 1 080 pixels
Display aspect ratio : 16:9
Frame rate mode : Constant
Frame rate : 25.000 FPS
Color space : YUV
Chroma subsampling : 4:2:0
Bit depth : 8 bits
Scan type : Progressive
Bits/(Pixel*Frame) : 0.031
Stream size : 157 MiB (89%)
Color range : Limited
Color primaries : BT.709
Transfer characteristics : BT.709
Matrix coefficients : BT.709
Codec configuration box : avcC

Audio
ID : 2
Format : AAC LC
Format/Info : Advanced Audio Codec Low Complexity
Codec ID : mp4a-40-2
Duration : 13 min 31 s
Bit rate mode : Variable
Bit rate : 192 kb/s
Maximum bit rate : 200 kb/s
Channel(s) : 2 channels
Channel layout : L R
Sampling rate : 44.1 kHz
Frame rate : 43.066 FPS (1024 SPF)
Compression mode : Lossy
Stream size : 18.4 MiB (10%)
Default : Yes
Alternate group : 1


点击图片可查看大图

软字幕无法在截图上展现,HDR版本/杜比视界版本截图会出现颜色异常,请使用支持的设备播放!



1 个附件 售价 大小 下载 时间

Yun.Zhong.Ju.San.Zi.S01.2024.1080p.WEB-DL.H264.AAC-ZeroTV[1LOU.ME].torrent 0 金币 3.50K 119 次 8天前

#1楼
发帖时间:2024-05-16 08:56:40   |   回复数:0
游客组