BILL36
隐世仙人♂

[2022] [大陆] [动画] [WEB-1080P] 万古神话[第183-184集][国语配音/中文字幕].Wangu.Shenhua.S01.2022.1080p.WEB-DL.H264.AAC-ZeroTV 0

-->

完整标题:万古神话[第183-184集][国语配音/中文字幕].Wangu.Shenhua.S01.2022.1080p.WEB-DL.H264.AAC-ZeroTV 0.42GB



◎标  题 万古神话
◎译  名 Myth of the Ancients
◎年  代 2022
◎产  地 中国大陆
◎类  别 动画 / 武侠 / 古装
◎语  言 汉语普通话
◎IMDb链接 https://www.imdb.com/title//
◎豆瓣链接 https://movie.douban.com/subject/35923861/
◎演  员 袁铭喆 Mingzhe Yuan
      周侗 Dong Zhou
      李翰林 Hanlin Li
      张胡子 Zhang Huzi
      余昊威 Yu Haowei
      赵成晨 Chengchen Zhao
      凃雄飞
      胡正健 Zhengjian Hu

◎简  介
    从一个灵气枯竭的末法时代,来到了武道昌盛的世界,诡异死亡的灵种,危机四伏的局面,让处于深渊的王昊何去何从?

部分资源为软字幕,移动端推荐播放器:MxPlayer,nPlayer,infuse ,其他播放器请自行尝试。

部分资源为软字幕,电脑端推荐播放器:PotPlayer,完美解码,KMPLAYER,其他播放器请自行尝试。

下载端推荐纯BT下载软件:qBittorrent,Bitcomet,uTorrent ,其他下载软件请自行尝试。不支持吸血迅雷。

##### MediaInfo ######
General
Complete name : 万古神话.Wangu.Shenhua.S01E183.2022.1080p.WEB-DL.H264.AAC-ZeroTV.mp4
Duration : 11 min 8 s
Overall bit rate mode : Variable
Overall bit rate : 2 613 kb/s

Video
ID : 1
Format : AVC
Format/Info : Advanced Video Codec
Format profile : High@L4
Format settings : CABAC / 3 Ref Frames
Format settings, CABAC : Yes
Format settings, Reference frames : 3 frames
Codec ID : avc1
Codec ID/Info : Advanced Video Coding
Duration : 11 min 8 s
Bit rate : 2 417 kb/s
Width : 1 920 pixels
Height : 1 080 pixels
Display aspect ratio : 16:9
Frame rate mode : Constant
Frame rate : 25.000 FPS
Color space : YUV
Chroma subsampling : 4:2:0
Bit depth : 8 bits
Scan type : Progressive
Bits/(Pixel*Frame) : 0.047
Stream size : 193 MiB (92%)
Color range : Limited
Color primaries : BT.709
Transfer characteristics : BT.709
Matrix coefficients : BT.709
Codec configuration box : avcC

Audio
ID : 2
Format : AAC LC
Format/Info : Advanced Audio Codec Low Complexity
Codec ID : mp4a-40-2
Duration : 11 min 8 s
Bit rate mode : Variable
Bit rate : 192 kb/s
Maximum bit rate : 195 kb/s
Channel(s) : 2 channels
Channel layout : L R
Sampling rate : 44.1 kHz
Frame rate : 43.066 FPS (1024 SPF)
Compression mode : Lossy
Stream size : 15.1 MiB (7%)
Default : Yes
Alternate group : 1


点击图片可查看大图

软字幕无法在截图上展现,HDR版本/杜比视界版本截图会出现颜色异常,请使用支持的设备播放!



1 个附件 售价 大小 下载 时间

Wangu.Shenhua.S01.2022.1080p.WEB-DL.H264.AAC-ZeroTV[1LOU.ME].torrent 0 金币 3.65K 154 次 8天前

#1楼
发帖时间:2024-05-16 08:55:40   |   回复数:0
游客组