BILL36
隐世仙人♂

[2024] [大陆] [其它] [WEB-4K] 一拍三言[第09集][国语配音/中文字幕].Film.S01.2024.2160p.WEB-DL.H265.EDR.AAC-BlackTV 3.23GB

-->

完整标题:一拍三言[第09集][国语配音/中文字幕].Film.S01.2024.2160p.WEB-DL.H265.EDR.AAC-BlackTV 3.23GB



◎标  题 一拍三言
◎年  代 2024
◎产  地 中国大陆
◎类  别 纪录片
◎语  言 汉语普通话
◎IMDb链接 https://www.imdb.com/title//
◎豆瓣链接 https://movie.douban.com/subject/36822246/

◎简  介
    记录中国商业大航海时代,那些绝地重生的创业者。栏目探访者以“五力重塑”创业者的精神价值形象、正是一个去伪存真的过程,让我们与嘉宾一起,复盘求证,绝地重生、拨云见日,完成一次对自我精神价值的重塑与思考。

部分资源为软字幕,移动端推荐播放器:MxPlayer,nPlayer,infuse ,其他播放器请自行尝试。

部分资源为软字幕,电脑端推荐播放器:PotPlayer,完美解码,KMPLAYER,其他播放器请自行尝试。

下载端推荐纯BT下载软件:qBittorrent,Bitcomet,uTorrent ,其他下载软件请自行尝试。不支持吸血迅雷。

##### MediaInfo ######
General
Unique ID : 125203152802170728302216478763379892165 (0x5E3140074BF5E80CDCD1BC5A19A49FC5)
Complete name : Film.S01E09.2024.2160p.WEB-DL.H265.EDR.AAC-BlackTV.mkv
Duration : 30 min 13 s
Overall bit rate : 15.3 Mb/s

Video
ID : 1
Format : HEVC
Format/Info : High Efficiency Video Coding
Format profile : Main@L5@Main
Codec ID : V_MPEGH/ISO/HEVC
Duration : 30 min 13 s
Bit rate : 15.1 Mb/s
Width : 3 840 pixels
Height : 2 160 pixels
Display aspect ratio : 16:9
Frame rate mode : Constant
Frame rate : 25.000 FPS
Color space : YUV
Chroma subsampling : 4:2:0
Bit depth : 8 bits
Bits/(Pixel*Frame) : 0.073
Stream size : 3.19 GiB (99%)
Language : Chinese
Default : Yes
Forced : No
Color range : Limited
VENDOR_ID : [0][0][0][0]

Audio
ID : 2
Format : AAC LC
Format/Info : Advanced Audio Codec Low Complexity
Codec ID : A_AAC-2
Duration : 30 min 13 s
Bit rate : 192 kb/s
Channel(s) : 2 channels
Channel layout : L R
Sampling rate : 44.1 kHz
Frame rate : 43.066 FPS (1024 SPF)
Compression mode : Lossy
Stream size : 40.8 MiB (1%)
Title : Mandarin [AAC2.0]
Language : Chinese
Default : No
Forced : No
VENDOR_ID : [0][0][0][0]


点击图片可查看大图

软字幕无法在截图上展现,HDR版本/杜比视界版本截图会出现颜色异常,请使用支持的设备播放!



1 个附件 售价 大小 下载 时间

Film.S01.2024.2160p.WEB-DL.H265.EDR.AAC-BlackTV[1LOU.ME].torrent 0 金币 10.56K 112 次 8天前

#1楼
发帖时间:2024-05-16 08:55:11   |   回复数:0
游客组