BILL36
隐世仙人♂

[2016] [美国] [剧情] [WEB-4K] 马赛城 第一季[全8集][简繁英字幕].Marseille.S01.2016.2160p.NF.WEB-DL.DDP5.1.H.265-LelveTV 28.8

-->

完整标题:马赛城 第一季[全8集][简繁英字幕].Marseille.S01.2016.2160p.NF.WEB-DL.DDP5.1.H.265-LelveTV 28.80GB



◎标  题 马赛城 第一季
◎译  名 马赛
◎片  名 Marseille Season 1
◎年  代 2016
◎产  地 美国 / 法国
◎类  别 剧情
◎语  言 法语
◎IMDb评分 6.9/10 (5534人评价)
◎IMDb链接 https://www.imdb.com/title/tt4003966/
◎豆瓣评分 6.8/10 (390人评价)
◎豆瓣链接 https://movie.douban.com/subject/26324522/
◎导  演 弗洛朗-埃米利奥·西里 Florent-Emilio Siri
      托马斯·吉洛 Thomas Gilou
◎编  剧 丹·弗兰克 Dan Franck
◎演  员 热拉尔·德帕迪约 Gérard Depardieu
      伯努瓦·马吉梅尔 Benoît Magimel
      热拉尔丁娜·帕亚 Géraldine Pailhas
      伊波利特·吉拉尔多 Hippolyte Girardot
      娜迪亚·法尔丝 Nadia Farès
      斯特芬·凯亚尔 Stéphane Caillard
      帕斯卡尔·艾尔索 Pascal Elso
      克里斯蒂娜·瓦伦苏埃拉 Cristina Valenzuela
      戴夫·麦罗 Dave Mallow
      雷米·佩德维拉 Rémi Pedevilla
      卡罗琳娜·尤尔扎克 Carolina Jurczak
      丹尼尔·洛贝 Daniel Njo Lobé
      埃里克·萨文 Eric Savin
      莱昂内尔·埃尔多安 Lionel Erdogan
      纳西姆·斯艾哈迈德 Nassim Si Ahmed
      阿兰·布拉兹克斯 Alain Blazquez
      海迪·布奇纳法 Hedi Bouchenafa
      克里斯蒂安·马祖奇尼 Christian Mazucchini

◎简  介
    Netflix 的第一个法语语言原始系列剧,意图用该剧主攻法国电视市场。Gerard Depardieu将扮演法国海港城市马赛的市长,已经在任多年。在新一轮市长选举中,他将面对一名政坛新秀(Benoit Magimel)的强力挑战——这名政坛新秀不是别人,就是他自己的徒弟。Geraldine Pailhas和Nadia Fares参与演出。该剧第一季为8集,2016年初播出。

部分资源为软字幕,移动端推荐播放器:MxPlayer,nPlayer,infuse ,其他播放器请自行尝试。

部分资源为软字幕,电脑端推荐播放器:PotPlayer,完美解码,KMPLAYER,其他播放器请自行尝试。

下载端推荐纯BT下载软件:qBittorrent,Bitcomet,uTorrent ,其他下载软件请自行尝试。不支持吸血迅雷。

##### MediaInfo ######
General
Unique ID : 26760711894611253074538035997744397469 (0x1421ECF68D7BA14E0DE52C2043F57C9D)
Complete name : Marseille.S01E01.2016.2160p.NF.WEB-DL.DDP5.1.H.265-LelveTV.mkv
Duration : 44 min 8 s
Overall bit rate : 12.6 Mb/s

Video
ID : 1
Format : HEVC
Format/Info : High Efficiency Video Coding
Format profile : Main 10@L5@Main
Codec ID : V_MPEGH/ISO/HEVC
Duration : 44 min 8 s
Bit rate : 11.9 Mb/s
Width : 3 840 pixels
Height : 2 160 pixels
Display aspect ratio : 16:9
Frame rate mode : Constant
Frame rate : 25.000 FPS
Color space : YUV
Chroma subsampling : 4:2:0
Bit depth : 10 bits
Bits/(Pixel*Frame) : 0.058
Stream size : 3.68 GiB (95%)
Default : Yes
Forced : No
Color range : Limited
Color primaries : BT.709
Transfer characteristics : BT.709
Matrix coefficients : BT.709

Audio
ID : 2
Format : E-AC-3
Format/Info : Enhanced AC-3
Commercial name : Dolby Digital Plus
Codec ID : A_EAC3
Duration : 44 min 8 s
Bit rate mode : Constant
Bit rate : 640 kb/s
Channel(s) : 6 channels
Channel layout : L R C LFE Ls Rs
Sampling rate : 48.0 kHz
Frame rate : 31.250 FPS (1536 SPF)
Compression mode : Lossy
Stream size : 202 MiB (5%)
Title : Fran?ais [Dolby Digital Plus 5.1]
Language : French
Service kind : Complete Main
Default : Yes
Forced : No

Text #1
ID : 3
Format : UTF-8
Codec ID : S_TEXT/UTF8
Codec ID/Info : UTF-8 Plain Text
Duration : 41 min 44 s
Bit rate : 69 b/s
Frame rate : 0.216 FPS
Count of elements : 540
Stream size : 21.4 KiB (0%)
Title : Fran?ais [SDH]
Language : French
Default : No
Forced : No

Text #2
ID : 4
Format : UTF-8
Codec ID : S_TEXT/UTF8
Codec ID/Info : UTF-8 Plain Text
Duration : 41 min 19 s
Bit rate : 48 b/s
Frame rate : 0.198 FPS
Count of elements : 490
Stream size : 14.8 KiB (0%)
Title : 中文(简体)
Language : Chinese
Default : Yes
Forced : No

Text #3
ID : 5
Format : UTF-8
Codec ID : S_TEXT/UTF8
Codec ID/Info : UTF-8 Plain Text
Duration : 41 min 19 s
Bit rate : 49 b/s
Frame rate : 0.198 FPS
Count of elements : 490
Stream size : 15.1 KiB (0%)
Title : 中文 (繁體)
Language : Chinese
Default : No
Forced : No

Text #4
ID : 6
Format : UTF-8
Codec ID : S_TEXT/UTF8
Codec ID/Info : UTF-8 Plain Text
Duration : 41 min 19 s
Bit rate : 94 b/s
Frame rate : 0.194 FPS
Count of elements : 482
Stream size : 28.6 KiB (0%)
Title : ???????
Language : Arabic
Default : No
Forced : No

Text #5
ID : 7
Format : UTF-8
Codec ID : S_TEXT/UTF8
Codec ID/Info : UTF-8 Plain Text
Duration : 41 min 20 s
Bit rate : 52 b/s
Frame rate : 0.159 FPS
Count of elements : 394
Stream size : 15.9 KiB (0%)
Title : Dansk
Language : Danish
Default : No
Forced : No

Text #6
ID : 8
Format : UTF-8
Codec ID : S_TEXT/UTF8
Codec ID/Info : UTF-8 Plain Text
Duration : 41 min 19 s
Bit rate : 58 b/s
Frame rate : 0.191 FPS
Count of elements : 473
Stream size : 17.6 KiB (0%)
Title : Deutsch
Language : German
Default : No
Forced : No

Text #7
ID : 9
Format : UTF-8
Codec ID : S_TEXT/UTF8
Codec ID/Info : UTF-8 Plain Text
Duration : 41 min 41 s
Bit rate : 91 b/s
Frame rate : 0.202 FPS
Count of elements : 506
Stream size : 27.9 KiB (0%)
Title : Ελληνικ?
Language : Greek
Default : No
Forced : No

Text #8
ID : 10
Format : UTF-8
Codec ID : S_TEXT/UTF8
Codec ID/Info : UTF-8 Plain Text
Duration : 41 min 19 s
Bit rate : 56 b/s
Frame rate : 0.197 FPS
Count of elements : 489
Stream size : 17.2 KiB (0%)
Title : English
Language : English
Default : No
Forced : No

Text #9
ID : 11
Format : UTF-8
Codec ID : S_TEXT/UTF8
Codec ID/Info : UTF-8 Plain Text
Duration : 41 min 19 s
Bit rate : 56 b/s
Frame rate : 0.197 FPS
Count of elements : 488
Stream size : 17.2 KiB (0%)
Title : Espa?ol
Language : Spanish
Default : No
Forced : No

Text #10
ID : 12
Format : UTF-8
Codec ID : S_TEXT/UTF8
Codec ID/Info : UTF-8 Plain Text
Duration : 41 min 19 s
Bit rate : 62 b/s
Frame rate : 0.196 FPS
Count of elements : 485
Stream size : 18.8 KiB (0%)
Title : Espa?ol (Espa?a)
Language : Spanish
Default : No
Forced : No

Text #11
ID : 13
Format : UTF-8
Codec ID : S_TEXT/UTF8
Codec ID/Info : UTF-8 Plain Text
Duration : 41 min 20 s
Bit rate : 54 b/s
Frame rate : 0.157 FPS
Count of elements : 389
Stream size : 16.4 KiB (0%)
Title : Suomi
Language : Finnish
Default : No
Forced : No

Text #12
ID : 14
Format : UTF-8
Codec ID : S_TEXT/UTF8
Codec ID/Info : UTF-8 Plain Text
Duration : 41 min 19 s
Bit rate : 83 b/s
Frame rate : 0.163 FPS
Count of elements : 404
Stream size : 25.2 KiB (0%)
Title : ?????
Language : Hebrew
Default : No
Forced : No

Text #13
ID : 15
Format : UTF-8
Codec ID : S_TEXT/UTF8
Codec ID/Info : UTF-8 Plain Text
Duration : 41 min 19 s
Bit rate : 56 b/s
Frame rate : 0.195 FPS
Count of elements : 483
Stream size : 17.0 KiB (0%)
Title : Italiano
Language : Italian
Default : No
Forced : No

Text #14
ID : 16
Format : UTF-8
Codec ID : S_TEXT/UTF8
Codec ID/Info : UTF-8 Plain Text
Duration : 41 min 19 s
Bit rate : 47 b/s
Frame rate : 0.200 FPS
Count of elements : 497
Stream size : 14.4 KiB (0%)
Title : 日本語
Language : Japanese
Default : No
Forced : No

Text #15
ID : 17
Format : UTF-8
Codec ID : S_TEXT/UTF8
Codec ID/Info : UTF-8 Plain Text
Duration : 41 min 19 s
Bit rate : 57 b/s
Frame rate : 0.201 FPS
Count of elements : 498
Stream size : 17.4 KiB (0%)
Title : ???
Language : Korean
Default : No
Forced : No

Text #16
ID : 18
Format : UTF-8
Codec ID : S_TEXT/UTF8
Codec ID/Info : UTF-8 Plain Text
Duration : 41 min 20 s
Bit rate : 55 b/s
Frame rate : 0.160 FPS
Count of elements : 397
Stream size : 16.7 KiB (0%)
Title : Norsk Bokm?l
Language : Norwegian Bokmal
Default : No
Forced : No

Text #17
ID : 19
Format : UTF-8
Codec ID : S_TEXT/UTF8
Codec ID/Info : UTF-8 Plain Text
Duration : 41 min 19 s
Bit rate : 56 b/s
Frame rate : 0.183 FPS
Count of elements : 453
Stream size : 17.0 KiB (0%)
Title : Nederlands
Language : Dutch
Default : No
Forced : No

Text #18
ID : 20
Format : UTF-8
Codec ID : S_TEXT/UTF8
Codec ID/Info : UTF-8 Plain Text
Duration : 41 min 19 s
Bit rate : 51 b/s
Frame rate : 0.197 FPS
Count of elements : 489
Stream size : 15.5 KiB (0%)
Title : Polski
Language : Polish
Default : No
Forced : No

Text #19
ID : 21
Format : UTF-8
Codec ID : S_TEXT/UTF8
Codec ID/Info : UTF-8 Plain Text
Duration : 41 min 19 s
Bit rate : 61 b/s
Frame rate : 0.195 FPS
Count of elements : 484
Stream size : 18.6 KiB (0%)
Title : Português
Language : Portuguese
Default : No
Forced : No

Text #20
ID : 22
Format : UTF-8
Codec ID : S_TEXT/UTF8
Codec ID/Info : UTF-8 Plain Text
Duration : 41 min 19 s
Bit rate : 54 b/s
Frame rate : 0.196 FPS
Count of elements : 487
Stream size : 16.4 KiB (0%)
Title : Português (Brasil)
Language : Portuguese
Default : No
Forced : No

Text #21
ID : 23
Format : UTF-8
Codec ID : S_TEXT/UTF8
Codec ID/Info : UTF-8 Plain Text
Duration : 41 min 29 s
Bit rate : 58 b/s
Frame rate : 0.194 FPS
Count of elements : 483
Stream size : 17.9 KiB (0%)
Title : Roman?
Language : Romanian
Default : No
Forced : No

Text #22
ID : 24
Format : UTF-8
Codec ID : S_TEXT/UTF8
Codec ID/Info : UTF-8 Plain Text
Duration : 41 min 20 s
Bit rate : 57 b/s
Frame rate : 0.158 FPS
Count of elements : 393
Stream size : 17.3 KiB (0%)
Title : Svenska
Language : Swedish
Default : No
Forced : No

Text #23
ID : 25
Format : UTF-8
Codec ID : S_TEXT/UTF8
Codec ID/Info : UTF-8 Plain Text
Duration : 41 min 19 s
Bit rate : 140 b/s
Frame rate : 0.207 FPS
Count of elements : 513
Stream size : 42.4 KiB (0%)
Title : ???
Language : Thai
Default : No
Forced : No

Text #24
ID : 26
Format : UTF-8
Codec ID : S_TEXT/UTF8
Codec ID/Info : UTF-8 Plain Text
Duration : 41 min 19 s
Bit rate : 56 b/s
Frame rate : 0.198 FPS
Count of elements : 490
Stream size : 17.1 KiB (0%)
Title : Türk?e
Language : Turkish
Default : No
Forced : No

Text #25
ID : 27
Format : UTF-8
Codec ID : S_TEXT/UTF8
Codec ID/Info : UTF-8 Plain Text
Duration : 41 min 19 s
Bit rate : 75 b/s
Frame rate : 0.196 FPS
Count of elements : 485
Stream size : 22.8 KiB (0%)
Title : Ti?ng Vi?t
Language : Vietnamese
Default : No
Forced : No

Menu
00:00:00.000 : en:Part 01
00:42:46.000 : en:Credits


点击图片可查看大图

软字幕无法在截图上展现,HDR版本/杜比视界版本截图会出现颜色异常,请使用支持的设备播放!



1 个附件 售价 大小 下载 时间

Marseille.S01.2016.2160p.NF.WEB-DL.DDP5.1.H.265-LelveTV[1LOU.ME].torrent 0 金币 75.14K 182 次 8天前

#1楼
发帖时间:2024-05-16 08:51:59   |   回复数:0
游客组