BILL36
隐世仙人♂

[2024] [其它] [喜剧] [WEB-1080P] 真爱下一位[全8集][国语配音/中文字幕].Love.on.a.Shoestring.S01.2024.1080p.NF.WEB-DL.DDP2.0.H264-

-->

完整标题:真爱下一位[全8集][国语配音/中文字幕].Love.on.a.Shoestring.S01.2024.1080p.NF.WEB-DL.DDP2.0.H264-LelveTV 17.08GB



◎标  题 真爱下一位
◎译  名 谢谢你,下一个 / Thank You / Next
◎片  名 Kimler Geldi Kimler Geçti
◎年  代 2024
◎产  地 土耳其
◎类  别 喜剧 / 爱情
◎语  言 土耳其语
◎IMDb评分 5.8/10 (2144人评价)
◎IMDb链接 https://www.imdb.com/title/tt28267514/
◎豆瓣链接 https://movie.douban.com/subject/36860199/
◎演  员 塞雷奈·萨里卡亚 Serenay Sarikaya
      梅廷·阿克杜尔格 Metin Akdülger
      博兰·库祖姆 Boran Kuzum
      巴德·伊西尔 Bade Iscil
      泽伊内普·图格斯·巴亚特 Zeynep Tugçe Bayat
      梅里奇·阿拉尔 Meric Aral
      古尔坎·阿尔斯兰 Gulcan Arslan
      Hakan Kurtas
      里法特·桑贾尔 Ahmet Rifat Sungar
      拉希·锡兰 Laçin Ceylan
      埃格·艾丹 Ege Aydan
      卡米尔·古勒 Kamil Güler
      埃斯拉·鲁桑 Esra Rusan
      Efe Tuncer

◎简  介
    Upon recovering from the betrayal of her first love through the help of her friends and a handsome chef; a successful lawyer, Leyla Taylan, takes over the divorce case of the famous third wife Tuba Tepelioglu, also known as the case of the year. Facing her is Cem Murathan, a serial relationship killer, who got divorced from three different women in 15 years. Leyla will defend her client against this narcissistic man in the most passionate way. However this passion will blow up the whole situation.

部分资源为软字幕,移动端推荐播放器:MxPlayer,nPlayer,infuse ,其他播放器请自行尝试。

部分资源为软字幕,电脑端推荐播放器:PotPlayer,完美解码,KMPLAYER,其他播放器请自行尝试。

下载端推荐纯BT下载软件:qBittorrent,Bitcomet,uTorrent ,其他下载软件请自行尝试。不支持吸血迅雷。

##### MediaInfo ######
General
Unique ID : 207324612864705889034468210069105642349 (0x9BF9449C76FABD34DA4CE52277358B6D)
Complete name : Love.on.a.Shoestring.S01E01.2024.1080p.NF.WEB-DL.DDP2.0.H264-LelveTV.mkv
Duration : 46 min 7 s
Overall bit rate mode : Variable
Overall bit rate : 5 127 kb/s

Video
ID : 1
Format : AVC
Format/Info : Advanced Video Codec
Format profile : Main@L4
Format settings : CABAC / 3 Ref Frames
Format settings, CABAC : Yes
Format settings, Reference frames : 3 frames
Codec ID : V_MPEG4/ISO/AVC
Duration : 46 min 7 s
Bit rate mode : Variable
Bit rate : 5 000 kb/s
Maximum bit rate : 7 500 kb/s
Width : 1 920 pixels
Height : 1 080 pixels
Display aspect ratio : 16:9
Frame rate mode : Constant
Frame rate : 29.970 (29970/1000) FPS
Original frame rate : 29.970 (30000/1001) FPS
Color space : YUV
Chroma subsampling : 4:2:0
Bit depth : 8 bits
Scan type : Progressive
Bits/(Pixel*Frame) : 0.080
Stream size : 1.61 GiB (97%)
Writing library : x264 core 148 r2727 7d026e8
Encoding settings : cabac=1 / ref=3 / deblock=1:0:0 / analyse=0x1:0x111 / me=umh / subme=10 / psy=1 / psy_rd=1.00:0.00 / mixed_ref=1 / me_range=24 / chroma_me=1 / trellis=2 / 8x8dct=0 / cqm=0 / deadzone=21,11 / fast_pskip=1 / chroma_qp_offset=-2 / threads=6 / lookahead_threads=1 / sliced_threads=0 / nr=0 / decimate=1 / interlaced=0 / bluray_compat=0 / stitchable=1 / constrained_intra=0 / bframes=2 / b_pyramid=0 / b_adapt=2 / b_bias=0 / direct=3 / weightb=1 / open_gop=0 / weightp=2 / keyint=300 / keyint_min=151 / scenecut=0 / intra_refresh=0 / rc_lookahead=60 / rc=2pass / mbtree=1 / bitrate=5000 / ratetol=1.0 / qcomp=0.50 / qpmin=6 / qpmax=51 / qpstep=4 / cplxblur=20.0 / qblur=0.5 / vbv_maxrate=7500 / vbv_bufsize=10000 / nal_hrd=vbr / filler=0 / ip_ratio=1.40 / aq=1:1.00
Default : Yes
Forced : No

Audio
ID : 2
Format : E-AC-3
Format/Info : Enhanced AC-3
Commercial name : Dolby Digital Plus
Codec ID : A_EAC3
Duration : 46 min 7 s
Bit rate mode : Constant
Bit rate : 128 kb/s
Channel(s) : 2 channels
Channel layout : L R
Sampling rate : 48.0 kHz
Frame rate : 31.250 FPS (1536 SPF)
Compression mode : Lossy
Stream size : 42.2 MiB (2%)
Title : Chinese (Taiwan) [Dolby Digital Plus 2.0]
Language : Chinese
Service kind : Complete Main
Default : Yes
Forced : No

Text #1
ID : 3
Format : UTF-8
Codec ID : S_TEXT/UTF8
Codec ID/Info : UTF-8 Plain Text
Duration : 44 min 55 s
Bit rate : 50 b/s
Frame rate : 0.293 FPS
Count of elements : 789
Stream size : 16.7 KiB (0%)
Title : 中文(简体)
Language : Chinese
Default : Yes
Forced : No

Text #2
ID : 4
Format : UTF-8
Codec ID : S_TEXT/UTF8
Codec ID/Info : UTF-8 Plain Text
Duration : 44 min 55 s
Bit rate : 50 b/s
Frame rate : 0.293 FPS
Count of elements : 789
Stream size : 16.7 KiB (0%)
Title : 中文 (繁體)
Language : Chinese
Default : No
Forced : No

Menu
00:00:00.000 : en:Part 01
00:00:53.000 : en:Intro
00:02:00.000 : en:Part 02
00:44:27.000 : en:Credits


点击图片可查看大图

软字幕无法在截图上展现,HDR版本/杜比视界版本截图会出现颜色异常,请使用支持的设备播放!



1 个附件 售价 大小 下载 时间

Love.on.a.Shoestring.S01.2024.1080p.NF.WEB-DL.DDP2.0.H264-LelveTV[1LOU.ME].torrent 0 金币 46.15K 112 次 8天前

#1楼
发帖时间:2024-05-16 08:51:28   |   回复数:0
游客组