BILL36
隐世仙人♂

[2021] [日本] [剧情] [WEB-1080P] 为美好的世界献上祝福! 第三季[第06集][中文字幕].2024.1080p.WEB-DL.H264.AAC-ZeroTV 1.29GB

-->

完整标题:为美好的世界献上祝福! 第三季[第06集][中文字幕].2024.1080p.WEB-DL.H264.AAC-ZeroTV 1.29GB



◎标  题 为美好的世界献上祝福! 第三季
◎片  名 この素晴らしい世界に祝福を! 3期
◎年  代 2021
◎产  地 日本
◎类  别 剧情
◎语  言 暂无
◎IMDb链接 https://www.imdb.com/title//
◎豆瓣链接 https://movie.douban.com/subject/34948226/
◎导  演 金崎贵臣
◎编  剧 上江洲诚
◎演  员 高桥李依
      福岛润
      雨宫天
      茅野爱衣

◎简  介
  暂无剧情简介

部分资源为软字幕,移动端推荐播放器:MxPlayer,nPlayer,infuse ,其他播放器请自行尝试。

部分资源为软字幕,电脑端推荐播放器:PotPlayer,完美解码,KMPLAYER,其他播放器请自行尝试。

下载端推荐纯BT下载软件:qBittorrent,Bitcomet,uTorrent ,其他下载软件请自行尝试。不支持吸血迅雷。

##### MediaInfo ######
General
Unique ID : 134142243701232049983909123400612771528 (0x64EADB3CB666A538A9421F09D420F6C8)
Complete name : Kono.Subarashii.Sekai.ni.Shukufuku.wo.S03E06.2024.1080p.WEB-DL.H264.AAC-ZeroTV.mkv
Duration : 23 min 40 s
Overall bit rate : 7 808 kb/s

Video
ID : 1
Format : AVC
Format/Info : Advanced Video Codec
Format profile : [email protected]
Format settings : CABAC / 1 Ref Frames
Format settings, CABAC : Yes
Format settings, Reference frames : 1 frame
Format settings, GOP : M=1, N=60
Codec ID : V_MPEG4/ISO/AVC
Duration : 23 min 40 s
Bit rate mode : Constant
Bit rate : 8 000 kb/s
Width : 1 920 pixels
Height : 1 080 pixels
Display aspect ratio : 16:9
Frame rate mode : Constant
Frame rate : 29.970 (30000/1001) FPS
Color space : YUV
Chroma subsampling : 4:2:0
Bit depth : 8 bits
Scan type : Progressive
Bits/(Pixel*Frame) : 0.129
Stream size : 1.27 GiB (98%)
Language : English
Default : Yes
Forced : No

Audio
ID : 2
Format : AAC LC
Format/Info : Advanced Audio Codec Low Complexity
Codec ID : A_AAC-2
Duration : 23 min 39 s
Bit rate : 125 kb/s
Channel(s) : 2 channels
Channel layout : L R
Sampling rate : 48.0 kHz
Frame rate : 46.875 FPS (1024 SPF)
Compression mode : Lossy
Stream size : 21.2 MiB (2%)
Title : 日语
Language : Japanese
Default : Yes
Forced : No

Text #1
ID : 3
Format : UTF-8
Codec ID : S_TEXT/UTF8
Codec ID/Info : UTF-8 Plain Text
Duration : 23 min 39 s
Bit rate : 63 b/s
Frame rate : 0.337 FPS
Count of elements : 478
Stream size : 11.1 KiB (0%)
Title : 简体中文
Language : Chinese
Default : No
Forced : No

Text #2
ID : 4
Format : UTF-8
Codec ID : S_TEXT/UTF8
Codec ID/Info : UTF-8 Plain Text
Duration : 23 min 39 s
Bit rate : 63 b/s
Frame rate : 0.337 FPS
Count of elements : 478
Stream size : 11.1 KiB (0%)
Title : 繁体中文
Language : Chinese
Default : No
Forced : No


点击图片可查看大图

软字幕无法在截图上展现,HDR版本/杜比视界版本截图会出现颜色异常,请使用支持的设备播放!



1 个附件 售价 大小 下载 时间

2024.1080p.WEB-DL.H264.AAC-ZeroTV[1LOU.ME].torrent 0 金币 5.74K 189 次 8天前

#1楼
发帖时间:2024-05-16 08:50:17   |   回复数:0
游客组