BILL36
隐世仙人♂

[2024] [日本] [剧情] [WEB-1080P] 喧哗独学[第06集][中文字幕].Kenka.Dokugaku.S01.2024.1080p.WEB-DL.H264.AAC-ZeroTV 1.20GB

-->

完整标题:喧哗独学[第06集][中文字幕].Kenka.Dokugaku.S01.2024.1080p.WEB-DL.H264.AAC-ZeroTV 1.20GB



◎标  题 喧哗独学
◎译  名 格斗实况 / 直播风暴 / Viral Hit
◎片  名 싸움독학
◎年  代 2024
◎产  地 日本
◎类  别 剧情 / 动作 / 动画
◎语  言 日语
◎IMDb链接 https://www.imdb.com/title//
◎豆瓣链接 https://movie.douban.com/subject/36744123/
◎导  演 菱田正和 Masakazu Hishida
◎编  剧 大野敏哉 Ono Toshiya
◎演  员 丹羽哲士 Niwa Satoshi
      冈本信彦 Nobuhiko Okamoto
      菲鲁兹·蓝 Fairouz Ai
      石川由依 Yui Ishikawa
      武内骏辅 Shunsuke Takeuchi
      石川界人 Kaito Ishikawa
      青山吉能 Aoyama Yoshino
      中村悠一 Yuuichi Nakamura
      杉田智和 Tomokazu Sugita

◎简  介
    这是一个全民直播的时代,流量即金钱,弱鸡刘明浩误打误撞通过“打架”视频走红网络,开始了直播之路。为了赚钱还清欠款,需要足够“抗揍”,为此,他点开了一个神秘的账号,这个账号专门上传格斗技巧的教学视频。今天也励志成为不挨打又能赚钱的主播~

部分资源为软字幕,移动端推荐播放器:MxPlayer,nPlayer,infuse ,其他播放器请自行尝试。

部分资源为软字幕,电脑端推荐播放器:PotPlayer,完美解码,KMPLAYER,其他播放器请自行尝试。

下载端推荐纯BT下载软件:qBittorrent,Bitcomet,uTorrent ,其他下载软件请自行尝试。不支持吸血迅雷。

##### MediaInfo ######
General
Unique ID : 306306438130513687976276400148689140460 (0xE6707960F04662B4D9A3A462141B3AEC)
Complete name : Kenka.Dokugaku.S01E06.2024.1080p.WEB-DL.H264.AAC-ZeroTV.mkv
Duration : 22 min 54 s
Overall bit rate : 7 503 kb/s

Video
ID : 1
Format : AVC
Format/Info : Advanced Video Codec
Format profile : [email protected]
Format settings : CABAC / 1 Ref Frames
Format settings, CABAC : Yes
Format settings, Reference frames : 1 frame
Format settings, GOP : M=1, N=60
Codec ID : V_MPEG4/ISO/AVC
Duration : 22 min 54 s
Bit rate mode : Constant
Bit rate : 7 375 kb/s
Nominal bit rate : 8 000 kb/s
Width : 1 920 pixels
Height : 1 080 pixels
Display aspect ratio : 16:9
Frame rate mode : Constant
Frame rate : 29.970 (30000/1001) FPS
Color space : YUV
Chroma subsampling : 4:2:0
Bit depth : 8 bits
Scan type : Progressive
Bits/(Pixel*Frame) : 0.119
Stream size : 1.18 GiB (98%)
Language : English
Default : Yes
Forced : No

Audio
ID : 2
Format : AAC LC
Format/Info : Advanced Audio Codec Low Complexity
Codec ID : A_AAC-2
Duration : 22 min 54 s
Bit rate : 125 kb/s
Channel(s) : 2 channels
Channel layout : L R
Sampling rate : 48.0 kHz
Frame rate : 46.875 FPS (1024 SPF)
Compression mode : Lossy
Stream size : 20.6 MiB (2%)
Title : 日语
Language : Japanese
Default : Yes
Forced : No

Text #1
ID : 3
Format : UTF-8
Codec ID : S_TEXT/UTF8
Codec ID/Info : UTF-8 Plain Text
Duration : 21 min 18 s
Bit rate : 67 b/s
Frame rate : 0.302 FPS
Count of elements : 386
Stream size : 10.6 KiB (0%)
Title : 简体中文
Language : Chinese
Default : No
Forced : No

Text #2
ID : 4
Format : UTF-8
Codec ID : S_TEXT/UTF8
Codec ID/Info : UTF-8 Plain Text
Duration : 21 min 18 s
Bit rate : 67 b/s
Frame rate : 0.302 FPS
Count of elements : 386
Stream size : 10.6 KiB (0%)
Title : 繁体中文
Language : Chinese
Default : No
Forced : No


点击图片可查看大图

软字幕无法在截图上展现,HDR版本/杜比视界版本截图会出现颜色异常,请使用支持的设备播放!



1 个附件 售价 大小 下载 时间

Kenka.Dokugaku.S01.2024.1080p.WEB-DL.H264.AAC-ZeroTV[1LOU.ME].torrent 0 金币 5.47K 112 次 8天前

#1楼
发帖时间:2024-05-16 08:48:17   |   回复数:0
游客组