BILL36
隐世仙人♂

[2024] [日本] [剧情] [WEB-1080P] 喧哗独学[第06集][简繁英字幕].Kenka.Dokugaku.S01.2024.1080p.CR.WEB-DL.x264.AAC-ZeroTV 1.30GB

-->

完整标题:喧哗独学[第06集][简繁英字幕].Kenka.Dokugaku.S01.2024.1080p.CR.WEB-DL.x264.AAC-ZeroTV 1.30GB



◎标  题 喧哗独学
◎译  名 格斗实况 / 直播风暴 / Viral Hit
◎片  名 싸움독학
◎年  代 2024
◎产  地 日本
◎类  别 剧情 / 动作 / 动画
◎语  言 日语
◎IMDb链接 https://www.imdb.com/title//
◎豆瓣链接 https://movie.douban.com/subject/36744123/
◎导  演 菱田正和 Masakazu Hishida
◎编  剧 大野敏哉 Ono Toshiya
◎演  员 丹羽哲士 Niwa Satoshi
      冈本信彦 Nobuhiko Okamoto
      菲鲁兹·蓝 Fairouz Ai
      石川由依 Yui Ishikawa
      武内骏辅 Shunsuke Takeuchi
      石川界人 Kaito Ishikawa
      青山吉能 Aoyama Yoshino
      中村悠一 Yuuichi Nakamura
      杉田智和 Tomokazu Sugita

◎简  介
    这是一个全民直播的时代,流量即金钱,弱鸡刘明浩误打误撞通过“打架”视频走红网络,开始了直播之路。为了赚钱还清欠款,需要足够“抗揍”,为此,他点开了一个神秘的账号,这个账号专门上传格斗技巧的教学视频。今天也励志成为不挨打又能赚钱的主播~

部分资源为软字幕,移动端推荐播放器:MxPlayer,nPlayer,infuse ,其他播放器请自行尝试。

部分资源为软字幕,电脑端推荐播放器:PotPlayer,完美解码,KMPLAYER,其他播放器请自行尝试。

下载端推荐纯BT下载软件:qBittorrent,Bitcomet,uTorrent ,其他下载软件请自行尝试。不支持吸血迅雷。

##### MediaInfo ######
General
Unique ID : 41070174391778888390125260181341355177 (0x1EE5D3EF2C2B54EB7309DA3B04B23CA9)
Complete name : Kenka.Dokugaku.S01E06.2024.1080p.CR.WEB-DL.x264.AAC-ZeroTV.mkv
Duration : 22 min 55 s
Overall bit rate : 8 126 kb/s

Video
ID : 1
Format : AVC
Format/Info : Advanced Video Codec
Format profile : High@L4
Format settings : CABAC / 4 Ref Frames
Format settings, CABAC : Yes
Format settings, Reference frames : 4 frames
Codec ID : V_MPEG4/ISO/AVC
Duration : 22 min 54 s
Bit rate : 8 000 kb/s
Width : 1 920 pixels
Height : 1 080 pixels
Display aspect ratio : 16:9
Frame rate mode : Constant
Frame rate : 23.976 (24000/1001) FPS
Color space : YUV
Chroma subsampling : 4:2:0
Bit depth : 8 bits
Scan type : Progressive
Bits/(Pixel*Frame) : 0.161
Stream size : 1.28 GiB (98%)
Title : Japanese
Writing library : x264 core 164
Encoding settings : cabac=1 / ref=4 / deblock=1:1:1 / analyse=0x3:0x113 / me=hex / subme=8 / psy=1 / psy_rd=0.40:0.00 / mixed_ref=1 / me_range=16 / chroma_me=1 / trellis=2 / 8x8dct=1 / cqm=0 / deadzone=21,11 / fast_pskip=1 / chroma_qp_offset=-2 / threads=12 / lookahead_threads=2 / sliced_threads=0 / nr=0 / decimate=1 / interlaced=0 / bluray_compat=0 / constrained_intra=0 / bframes=0 / weightp=2 / keyint=96 / keyint_min=48 / scenecut=40 / intra_refresh=0 / rc_lookahead=48 / rc=2pass / mbtree=1 / bitrate=8000 / ratetol=1.0 / qcomp=0.60 / qpmin=0 / qpmax=69 / qpstep=4 / cplxblur=20.0 / qblur=0.5 / vbv_maxrate=12000 / vbv_bufsize=18000 / nal_hrd=none / filler=0 / ip_ratio=1.40 / aq=1:0.60
Language : Japanese
Default : Yes
Forced : No
Color range : Limited
Color primaries : BT.709
Transfer characteristics : BT.709
Matrix coefficients : BT.709

Audio
ID : 2
Format : AAC LC
Format/Info : Advanced Audio Codec Low Complexity
Codec ID : A_AAC-2
Duration : 22 min 55 s
Bit rate : 128 kb/s
Channel(s) : 2 channels
Channel layout : L R
Sampling rate : 44.1 kHz
Frame rate : 43.066 FPS (1024 SPF)
Compression mode : Lossy
Stream size : 21.0 MiB (2%)
Title : Japanese
Language : Japanese
Default : Yes
Forced : No

Text #1
ID : 3
Format : UTF-8
Codec ID : S_TEXT/UTF8
Codec ID/Info : UTF-8 Plain Text
Duration : 21 min 18 s
Bit rate : 67 b/s
Frame rate : 0.302 FPS
Count of elements : 386
Stream size : 10.6 KiB (0%)
Title : Chinese Simplified
Language : Chinese
Default : Yes
Forced : No

Text #2
ID : 4
Format : UTF-8
Codec ID : S_TEXT/UTF8
Codec ID/Info : UTF-8 Plain Text
Duration : 21 min 18 s
Bit rate : 67 b/s
Frame rate : 0.302 FPS
Count of elements : 386
Stream size : 10.6 KiB (0%)
Title : Chinese Traditional
Language : Chinese
Default : No
Forced : No

Text #3
ID : 5
Format : ASS
Codec ID : S_TEXT/ASS
Codec ID/Info : Advanced Sub Station Alpha
Duration : 21 min 19 s
Bit rate : 350 b/s
Frame rate : 0.424 FPS
Count of elements : 542
Compression mode : Lossless
Stream size : 54.8 KiB (0%)
Language : English
Default : No
Forced : No

Text #4
ID : 6
Format : ASS
Codec ID : S_TEXT/ASS
Codec ID/Info : Advanced Sub Station Alpha
Duration : 21 min 28 s
Bit rate : 223 b/s
Frame rate : 0.313 FPS
Count of elements : 403
Compression mode : Lossless
Stream size : 35.1 KiB (0%)
Language : German
Default : No
Forced : No

Text #5
ID : 7
Format : ASS
Codec ID : S_TEXT/ASS
Codec ID/Info : Advanced Sub Station Alpha
Duration : 22 min 49 s
Bit rate : 346 b/s
Frame rate : 0.399 FPS
Count of elements : 547
Compression mode : Lossless
Stream size : 57.9 KiB (0%)
Language : Spanish
Default : No
Forced : No

Text #6
ID : 8
Format : ASS
Codec ID : S_TEXT/ASS
Codec ID/Info : Advanced Sub Station Alpha
Duration : 22 min 49 s
Bit rate : 343 b/s
Frame rate : 0.399 FPS
Count of elements : 546
Compression mode : Lossless
Stream size : 57.5 KiB (0%)
Language : Spanish
Default : No
Forced : No

Text #7
ID : 9
Format : ASS
Codec ID : S_TEXT/ASS
Codec ID/Info : Advanced Sub Station Alpha
Duration : 22 min 49 s
Bit rate : 185 b/s
Frame rate : 0.277 FPS
Count of elements : 379
Compression mode : Lossless
Stream size : 31.0 KiB (0%)
Language : French
Default : No
Forced : No

Text #8
ID : 10
Format : ASS
Codec ID : S_TEXT/ASS
Codec ID/Info : Advanced Sub Station Alpha
Duration : 21 min 19 s
Bit rate : 378 b/s
Frame rate : 0.439 FPS
Count of elements : 562
Compression mode : Lossless
Stream size : 59.1 KiB (0%)
Language : Italian
Default : No
Forced : No

Text #9
ID : 11
Format : ASS
Codec ID : S_TEXT/ASS
Codec ID/Info : Advanced Sub Station Alpha
Duration : 21 min 19 s
Bit rate : 351 b/s
Frame rate : 0.426 FPS
Count of elements : 545
Compression mode : Lossless
Stream size : 54.8 KiB (0%)
Language : Portuguese
Default : No
Forced : No

Text #10
ID : 12
Format : ASS
Codec ID : S_TEXT/ASS
Codec ID/Info : Advanced Sub Station Alpha
Duration : 21 min 19 s
Bit rate : 519 b/s
Frame rate : 0.439 FPS
Count of elements : 562
Compression mode : Lossless
Stream size : 81.1 KiB (0%)
Language : Russian
Default : No
Forced : No


点击图片可查看大图

软字幕无法在截图上展现,HDR版本/杜比视界版本截图会出现颜色异常,请使用支持的设备播放!



1 个附件 售价 大小 下载 时间

Kenka.Dokugaku.S01.2024.1080p.CR.WEB-DL.x264.AAC-ZeroTV[1LOU.ME].torrent 0 金币 5.74K 84 次 8天前

#1楼
发帖时间:2024-05-16 08:47:47   |   回复数:0
游客组