BILL36
隐世仙人♂

[2023] [韩国] [爱情] [WEB-1080P] 换乘恋爱 第三季[第10集][中文字幕].Exchange.S03.2023.1080p.Viu.WEB-DL.H264.AAC-ZeroTV 2.69GB

-->

完整标题:换乘恋爱 第三季[第10集][中文字幕].Exchange.S03.2023.1080p.Viu.WEB-DL.H264.AAC-ZeroTV 2.69GB



◎标  题 换乘恋爱 第三季
◎片  名 환승연애 시즌3
◎年  代 2023
◎产  地 韩国
◎类  别 爱情 / 真人秀
◎语  言 韩语
◎IMDb链接 https://www.imdb.com/title//
◎豆瓣评分 7.3/10 (487人评价)
◎豆瓣链接 https://movie.douban.com/subject/36151610/
◎导  演 金仁荷 In-ha Kim
◎演  员 李龙真 Lee Yong Jin
      郑基石 Simon D
      金叡园 Ye-won Kim
      金亚荣 YURA
      宋多惠 Da-hye Song

◎简  介
    第三季由制作了Disney+的恋综《Pink Lie》的金仁荷PD执导。

部分资源为软字幕,移动端推荐播放器:MxPlayer,nPlayer,infuse ,其他播放器请自行尝试。

部分资源为软字幕,电脑端推荐播放器:PotPlayer,完美解码,KMPLAYER,其他播放器请自行尝试。

下载端推荐纯BT下载软件:qBittorrent,Bitcomet,uTorrent ,其他下载软件请自行尝试。不支持吸血迅雷。

##### MediaInfo ######
General
Unique ID : 249775635641561408296616403014282896487 (0xBBE909A08CB89E0BE100BD7C646FE467)
Complete name : Exchange.S03E10.2023.1080p.Viu.WEB-DL.H264.AAC-ZeroTV.mkv
Duration : 2 h 15 min
Overall bit rate mode : Variable
Overall bit rate : 2 854 kb/s

Video
ID : 1
Format : AVC
Format/Info : Advanced Video Codec
Format profile : [email protected]
Format settings : CABAC / 4 Ref Frames
Format settings, CABAC : Yes
Format settings, Reference frames : 4 frames
Codec ID : V_MPEG4/ISO/AVC
Duration : 2 h 15 min
Bit rate mode : Variable
Bit rate : 2 755 kb/s
Maximum bit rate : 4 500 kb/s
Width : 1 920 pixels
Height : 1 080 pixels
Display aspect ratio : 16:9
Frame rate mode : Constant
Frame rate : 29.970 (30000/1001) FPS
Original frame rate : 29.970 (29970/1000) FPS
Color space : YUV
Chroma subsampling : 4:2:0
Bit depth : 8 bits
Scan type : Progressive
Bits/(Pixel*Frame) : 0.044
Stream size : 2.60 GiB (97%)
Writing library : VOLO1.4.1
Language : Korean
Default : Yes
Forced : No

Audio
ID : 2
Format : AAC LC
Format/Info : Advanced Audio Codec Low Complexity
Codec ID : A_AAC-2
Duration : 2 h 15 min
Bit rate : 96.0 kb/s
Channel(s) : 2 channels
Channel layout : L R
Sampling rate : 48.0 kHz
Frame rate : 46.875 FPS (1024 SPF)
Compression mode : Lossy
Delay relative to video : -42 ms
Stream size : 92.7 MiB (3%)
Language : Korean
Default : Yes
Forced : No

Text #1
ID : 3
Format : UTF-8
Codec ID : S_TEXT/UTF8
Codec ID/Info : UTF-8 Plain Text
Duration : 2 h 14 min
Bit rate : 56 b/s
Frame rate : 0.270 FPS
Count of elements : 2181
Stream size : 55.8 KiB (0%)
Title : Chinese Simplified
Language : Chinese
Default : Yes
Forced : No

Text #2
ID : 4
Format : UTF-8
Codec ID : S_TEXT/UTF8
Codec ID/Info : UTF-8 Plain Text
Duration : 2 h 14 min
Bit rate : 56 b/s
Frame rate : 0.270 FPS
Count of elements : 2181
Stream size : 55.8 KiB (0%)
Title : Chinese Traditional
Language : Chinese
Default : No
Forced : No


点击图片可查看大图

软字幕无法在截图上展现,HDR版本/杜比视界版本截图会出现颜色异常,请使用支持的设备播放!



1 个附件 售价 大小 下载 时间

Exchange.S03.2023.1080p.Viu.WEB-DL.H264.AAC-ZeroTV[1LOU.ME].torrent 0 金币 9.21K 91 次 8天前

#1楼
发帖时间:2024-05-16 08:44:45   |   回复数:0
游客组