BILL36
隐世仙人♂

[更早] [日本] [剧情] [WEB-1080P] 風神の門[第07集][中文字幕].Bartender.Kami.no.Glass.S01.2024.1080p.Baha.WEB-DL.x264.AAC-Zer

-->

完整标题:風神の門[第07集][中文字幕].Bartender.Kami.no.Glass.S01.2024.1080p.Baha.WEB-DL.x264.AAC-ZeroTV 0.32GB



◎标  题 風神の門
◎年  代 1980
◎产  地 日本
◎类  别 剧情
◎语  言 日语
◎IMDb链接 https://www.imdb.com/title/tt10523226/
◎豆瓣链接 https://movie.douban.com/subject/36286988/
◎导  演 吉村芳之 Yoshiyuki Yoshimura
◎编  剧 金子成人 Narito Kaneko
      司马辽太郎 Ryotaro Shiba
◎演  员 三浦洋一 Yoichi Miura
      小野美由纪 Miyuki Ono
      竹胁无我 Muga Takewaki
      多岐川裕美 Yumi Takigawa
      樋口可南子 Kanako Higuchi
      矶部勉 Tsutomu Isobe
      渡边笃史 Atsushi Watanabe
      宫口精二 Seiji Miyaguchi
      佐藤庆 Kei Satô
      伊丹十三 Juzo Itami
      冈本茉莉 Mari Okamoto
      中村亚湖 Ako Nakamura
      岩井半四郎 Hanshiro Iwai
      牧野佐代子 Sayoko Makino
      三浦浩一 Kôichi Miura
      龙崎胜 Masaru Ryuzaki
      寺田农 Minori Terada
      殿山泰司 Taiji Tonoyama
      大木实 Minoru Oki
      初井言荣 Kotoe Hatsui

◎简  介
    関ヶ原の合戦から大坂夏の陣までの豊臣方対徳川方の息づまる激動の戦いを、霧隠才蔵を主人公に描く。リアルな忍術描写が話題に。一部資料では全21本と記載されているが誤りと思われる。各回のサブタイトルは以下のとおり。第1回「伊賀者上洛(「上洛」にルビ「じょうらく」が付く)」、第2回「冬の暗流」、第8回「変身居士(「居士」にルビ「こじ」が付く)」、第10回「大殺陣」、第11回「家康狙撃」、第12回「城壁に死す」、第15回「名古屋城大爆破」、第17回「慶長地獄節」、第20回「甲賀決死隊」。【役名(演技者)】霧隠才蔵(三浦浩一)、お国(小野みゆき)、真田幸村(竹脇無我)、隠岐殿(多岐川裕美)、獅子王院(磯部勉)、青子(樋口可南子)、猿飛佐助(渡辺篤史)、俊岳(佐藤慶)、板倉勝重(寺田農)、三好晴海(団しん也)、菊千代(小野ヤスシ)、穴山小助(森川正太)、茜丸(宮内真)、オロチ(見城貴信)、花小僧(中村幸路)、モヤ助(新里健士)、萩野(折原啓子)、梅ヶ枝(亜湖)、桂木(岡本茉利)、耳次(峰のぼる)、中井主馬(冷泉公裕)、信乃(政岡愛子)、鬼三(阿部希郎)、隼(野口貴史)、雑兵(梅津栄、刀原章光)、欠伸女(十勝花子)、座長(及川ヒロオ)、市木治三郎(村上幹夫)、人夫(金子正)、川村将監(大阪憲)、高沢平四郎(江藤三朗)、侍(姿鐵太郎)、少年(市山登、矢尾一樹、池田光隆)

部分资源为软字幕,移动端推荐播放器:MxPlayer,nPlayer,infuse ,其他播放器请自行尝试。

部分资源为软字幕,电脑端推荐播放器:PotPlayer,完美解码,KMPLAYER,其他播放器请自行尝试。

下载端推荐纯BT下载软件:qBittorrent,Bitcomet,uTorrent ,其他下载软件请自行尝试。不支持吸血迅雷。

##### MediaInfo ######
General
Complete name : Bartender.Kami.no.Glass.S01E07.2024.1080p.Baha.WEB-DL.x264.AAC-ZeroTV.mp4
Duration : 23 min 50 s
Overall bit rate : 1 919 kb/s

Video
ID : 1
Format : AVC
Format/Info : Advanced Video Codec
Format profile : High@L5
Format settings : CABAC / 4 Ref Frames
Format settings, CABAC : Yes
Format settings, Reference frames : 4 frames
Codec ID : avc1
Codec ID/Info : Advanced Video Coding
Duration : 23 min 50 s
Source duration : 23 min 50 s
Bit rate : 1 647 kb/s
Width : 1 920 pixels
Height : 1 080 pixels
Display aspect ratio : 16:9
Frame rate mode : Variable
Frame rate : 23.976 (24000/1001) FPS
Minimum frame rate : 23.974 FPS
Maximum frame rate : 23.981 FPS
Color space : YUV
Chroma subsampling : 4:2:0
Bit depth : 8 bits
Scan type : Progressive
Bits/(Pixel*Frame) : 0.033
Stream size : 281 MiB (86%)
Source stream size : 281 MiB (86%)
Writing library : x264 core 161 r3018 db0d417
Encoding settings : cabac=1 / ref=4 / deblock=1:-1:-1 / analyse=0x3:0x113 / me=umh / subme=9 / psy=1 / psy_rd=1.00:0.00 / mixed_ref=1 / me_range=16 / chroma_me=1 / trellis=2 / 8x8dct=1 / cqm=0 / deadzone=21,11 / fast_pskip=1 / chroma_qp_offset=-2 / threads=24 / lookahead_threads=2 / sliced_threads=0 / nr=0 / decimate=1 / interlaced=0 / bluray_compat=0 / constrained_intra=0 / bframes=8 / b_pyramid=2 / b_adapt=1 / b_bias=0 / direct=3 / weightb=1 / open_gop=0 / weightp=2 / keyint=250 / keyint_min=23 / scenecut=40 / intra_refresh=0 / rc_lookahead=50 / rc=crf / mbtree=1 / crf=21.0 / qcomp=0.60 / qpmin=0 / qpmax=69 / qpstep=4 / vbv_maxrate=12000 / vbv_bufsize=80000 / crf_max=0.0 / nal_hrd=none / filler=0 / ip_ratio=1.40 / aq=3:1.00
Codec configuration box : avcC

Audio
ID : 2
Format : AAC LC
Format/Info : Advanced Audio Codec Low Complexity
Codec ID : mp4a-40-2
Duration : 23 min 50 s
Bit rate mode : Constant
Bit rate : 265 kb/s
Channel(s) : 2 channels
Channel layout : L R
Sampling rate : 48.0 kHz
Frame rate : 46.875 FPS (1024 SPF)
Compression mode : Lossy
Stream size : 45.3 MiB (14%)
Language : Japanese
Default : Yes
Alternate group : 1


点击图片可查看大图

软字幕无法在截图上展现,HDR版本/杜比视界版本截图会出现颜色异常,请使用支持的设备播放!



1 个附件 售价 大小 下载 时间

Bartender.Kami.no.Glass.S01.2024.1080p.Baha.WEB-DL.x264.AAC-ZeroTV[1LOU.ME].torrent 0 金币 3.31K 63 次 8天前

#1楼
发帖时间:2024-05-16 08:40:13   |   回复数:0
游客组