BILL36
隐世仙人♂

[2024] [美国] [剧情] [WEB-4K] 完美的人[全6集][简繁英字幕].A.Man.in.Full.S01.2024.2160p.NF.WEB-DL.DDP5.1.H.265-LelveTV 34.

-->

完整标题:完美的人[全6集][简繁英字幕].A.Man.in.Full.S01.2024.2160p.NF.WEB-DL.DDP5.1.H.265-LelveTV 34.21GB



◎标  题 完美的人
◎译  名 完全人生
◎片  名 A Man In Full
◎年  代 2024
◎产  地 美国
◎类  别 剧情
◎语  言 英语
◎IMDb评分 5.5/10 (22人评价)
◎IMDb链接 https://www.imdb.com/title/tt15845610/
◎豆瓣链接 https://movie.douban.com/subject/35652780/
◎导  演 雷吉娜·金 Regina King
      托马斯·施拉梅 Thomas Schlamme
◎编  剧 大卫·E·凯利 David E. Kelley
      汤姆·沃尔夫 Tom Wolfe
◎演  员 杰夫·丹尼尔斯 Jeff Daniels
      埃文·罗 Evan Roe
      比尔·坎普 Bill Camp
      阿梅尔·艾米恩 Aml Ameen
      乔恩·迈克尔·希尔 Jon Michael Hill
      Shanita Wilburn
      Nathan Rudd
      L. Warren Young
      乔什·帕斯 Josh Pais
      杰瑞卡·辛顿 Jerrika Hinton
      阿特金斯·埃斯特蒙德 Atkins Estimond
      Keith Brooks
      Scott Daniel Johnson
      库尔特·岳 Kurt Yue
      葛人杰·海恩斯 Grainger Hines
      安德里亚·弗兰克尔 Andrea Frankle
      理查德·托普尔 Richard Topol
      约翰·莱西 John Lacy
      布里特·乔治 Britt George
      Sam Wren Vincent

◎简  介
    亚特兰大的房地产大亨查理·克罗克尔捍卫他的帝国,以防止那些想利用他突然破产和落魄获益的人时,商业和政治利益发生了冲突。

部分资源为软字幕,移动端推荐播放器:MxPlayer,nPlayer,infuse ,其他播放器请自行尝试。

部分资源为软字幕,电脑端推荐播放器:PotPlayer,完美解码,KMPLAYER,其他播放器请自行尝试。

下载端推荐纯BT下载软件:qBittorrent,Bitcomet,uTorrent ,其他下载软件请自行尝试。不支持吸血迅雷。

##### MediaInfo ######
General
Unique ID : 296744205949633622377766041526507314679 (0xDF3EDAEECAD3BD3B09D9E98A7AAE9DF7)
Complete name : A.Man.in.Full.S01E01.2024.2160p.NF.WEB-DL.DDP5.1.H.265-LelveTV.mkv
Duration : 43 min 5 s
Overall bit rate : 18.4 Mb/s

Video
ID : 1
Format : HEVC
Format/Info : High Efficiency Video Coding
Format profile : Main 10@L5@Main
Codec ID : V_MPEGH/ISO/HEVC
Duration : 43 min 5 s
Bit rate : 17.8 Mb/s
Width : 3 840 pixels
Height : 2 160 pixels
Display aspect ratio : 16:9
Frame rate mode : Constant
Frame rate : 23.976 (24000/1001) FPS
Color space : YUV
Chroma subsampling : 4:2:0
Bit depth : 10 bits
Bits/(Pixel*Frame) : 0.089
Stream size : 5.35 GiB (96%)
Default : Yes
Forced : No
Color range : Limited
Color primaries : BT.709
Transfer characteristics : BT.709
Matrix coefficients : BT.709

Audio
ID : 2
Format : E-AC-3
Format/Info : Enhanced AC-3
Commercial name : Dolby Digital Plus
Codec ID : A_EAC3
Duration : 43 min 5 s
Bit rate mode : Constant
Bit rate : 640 kb/s
Channel(s) : 6 channels
Channel layout : L R C LFE Ls Rs
Sampling rate : 48.0 kHz
Frame rate : 31.250 FPS (1536 SPF)
Compression mode : Lossy
Stream size : 197 MiB (3%)
Title : English [Dolby Digital Plus 5.1]
Language : English
Service kind : Complete Main
Default : Yes
Forced : No

Text #1
ID : 3
Format : UTF-8
Codec ID : S_TEXT/UTF8
Codec ID/Info : UTF-8 Plain Text
Duration : 40 min 56 s
Bit rate : 89 b/s
Frame rate : 0.305 FPS
Count of elements : 748
Stream size : 26.9 KiB (0%)
Title : English [SDH]
Language : English
Default : No
Forced : No

Text #2
ID : 4
Format : UTF-8
Codec ID : S_TEXT/UTF8
Codec ID/Info : UTF-8 Plain Text
Duration : 40 min 48 s
Bit rate : 58 b/s
Frame rate : 0.243 FPS
Count of elements : 595
Stream size : 17.6 KiB (0%)
Title : 中文(简体)
Language : Chinese
Default : Yes
Forced : No

Text #3
ID : 5
Format : UTF-8
Codec ID : S_TEXT/UTF8
Codec ID/Info : UTF-8 Plain Text
Duration : 40 min 48 s
Bit rate : 57 b/s
Frame rate : 0.251 FPS
Count of elements : 615
Stream size : 17.2 KiB (0%)
Title : 中文 (繁體)
Language : Chinese
Default : No
Forced : No

Text #4
ID : 6
Format : UTF-8
Codec ID : S_TEXT/UTF8
Codec ID/Info : UTF-8 Plain Text
Duration : 40 min 48 s
Bit rate : 116 b/s
Frame rate : 0.240 FPS
Count of elements : 587
Stream size : 34.9 KiB (0%)
Title : ???????
Language : Arabic
Default : No
Forced : No

Text #5
ID : 7
Format : UTF-8
Codec ID : S_TEXT/UTF8
Codec ID/Info : UTF-8 Plain Text
Duration : 38 min 24 s
Bit rate : 72 b/s
Frame rate : 0.217 FPS
Count of elements : 501
Stream size : 20.4 KiB (0%)
Title : ?e?tina
Language : Czech
Default : No
Forced : No

Text #6
ID : 8
Format : UTF-8
Codec ID : S_TEXT/UTF8
Codec ID/Info : UTF-8 Plain Text
Duration : 40 min 53 s
Bit rate : 60 b/s
Frame rate : 0.219 FPS
Count of elements : 536
Stream size : 18.1 KiB (0%)
Title : Dansk
Language : Danish
Default : No
Forced : No

Text #7
ID : 9
Format : UTF-8
Codec ID : S_TEXT/UTF8
Codec ID/Info : UTF-8 Plain Text
Duration : 40 min 48 s
Bit rate : 61 b/s
Frame rate : 0.223 FPS
Count of elements : 547
Stream size : 18.3 KiB (0%)
Title : Deutsch
Language : German
Default : No
Forced : No

Text #8
ID : 10
Format : UTF-8
Codec ID : S_TEXT/UTF8
Codec ID/Info : UTF-8 Plain Text
Duration : 40 min 46 s
Bit rate : 109 b/s
Frame rate : 0.240 FPS
Count of elements : 587
Stream size : 32.6 KiB (0%)
Title : Ελληνικ?
Language : Greek
Default : No
Forced : No

Text #9
ID : 11
Format : UTF-8
Codec ID : S_TEXT/UTF8
Codec ID/Info : UTF-8 Plain Text
Duration : 38 min 24 s
Bit rate : 72 b/s
Frame rate : 0.256 FPS
Count of elements : 590
Stream size : 20.5 KiB (0%)
Title : Espa?ol
Language : Spanish
Default : No
Forced : No

Text #10
ID : 12
Format : UTF-8
Codec ID : S_TEXT/UTF8
Codec ID/Info : UTF-8 Plain Text
Duration : 40 min 48 s
Bit rate : 62 b/s
Frame rate : 0.238 FPS
Count of elements : 583
Stream size : 18.8 KiB (0%)
Title : Espa?ol (Espa?a)
Language : Spanish
Default : No
Forced : No

Text #11
ID : 13
Format : UTF-8
Codec ID : S_TEXT/UTF8
Codec ID/Info : UTF-8 Plain Text
Duration : 40 min 48 s
Bit rate : 60 b/s
Frame rate : 0.211 FPS
Count of elements : 517
Stream size : 18.1 KiB (0%)
Title : Suomi
Language : Finnish
Default : No
Forced : No

Text #12
ID : 14
Format : UTF-8
Codec ID : S_TEXT/UTF8
Codec ID/Info : UTF-8 Plain Text
Duration : 40 min 48 s
Bit rate : 61 b/s
Frame rate : 0.239 FPS
Count of elements : 584
Stream size : 18.4 KiB (0%)
Title : Suomi (Israel)
Language : Finnish
Default : No
Forced : No

Text #13
ID : 15
Format : UTF-8
Codec ID : S_TEXT/UTF8
Codec ID/Info : UTF-8 Plain Text
Duration : 40 min 48 s
Bit rate : 64 b/s
Frame rate : 0.233 FPS
Count of elements : 570
Stream size : 19.1 KiB (0%)
Title : Fran?ais
Language : French
Default : No
Forced : No

Text #14
ID : 16
Format : UTF-8
Codec ID : S_TEXT/UTF8
Codec ID/Info : UTF-8 Plain Text
Duration : 40 min 48 s
Bit rate : 107 b/s
Frame rate : 0.239 FPS
Count of elements : 584
Stream size : 32.2 KiB (0%)
Title : ?????
Language : Hebrew
Default : No
Forced : No

Text #15
ID : 17
Format : UTF-8
Codec ID : S_TEXT/UTF8
Codec ID/Info : UTF-8 Plain Text
Duration : 40 min 48 s
Bit rate : 56 b/s
Frame rate : 0.234 FPS
Count of elements : 574
Stream size : 16.9 KiB (0%)
Title : Hrvatski
Language : Croatian
Default : No
Forced : No

Text #16
ID : 18
Format : UTF-8
Codec ID : S_TEXT/UTF8
Codec ID/Info : UTF-8 Plain Text
Duration : 40 min 48 s
Bit rate : 64 b/s
Frame rate : 0.223 FPS
Count of elements : 546
Stream size : 19.2 KiB (0%)
Title : Magyar
Language : Hungarian
Default : No
Forced : No

Text #17
ID : 19
Format : UTF-8
Codec ID : S_TEXT/UTF8
Codec ID/Info : UTF-8 Plain Text
Duration : 40 min 48 s
Bit rate : 65 b/s
Frame rate : 0.241 FPS
Count of elements : 591
Stream size : 19.6 KiB (0%)
Title : Bahasa Indonesia
Language : Indonesian
Default : No
Forced : No

Text #18
ID : 20
Format : UTF-8
Codec ID : S_TEXT/UTF8
Codec ID/Info : UTF-8 Plain Text
Duration : 40 min 48 s
Bit rate : 63 b/s
Frame rate : 0.235 FPS
Count of elements : 575
Stream size : 19.1 KiB (0%)
Title : Italiano
Language : Italian
Default : No
Forced : No

Text #19
ID : 21
Format : UTF-8
Codec ID : S_TEXT/UTF8
Codec ID/Info : UTF-8 Plain Text
Duration : 40 min 48 s
Bit rate : 54 b/s
Frame rate : 0.257 FPS
Count of elements : 628
Stream size : 16.2 KiB (0%)
Title : 日本語
Language : Japanese
Default : No
Forced : No

Text #20
ID : 22
Format : UTF-8
Codec ID : S_TEXT/UTF8
Codec ID/Info : UTF-8 Plain Text
Duration : 40 min 48 s
Bit rate : 73 b/s
Frame rate : 0.243 FPS
Count of elements : 595
Stream size : 22.1 KiB (0%)
Title : ???
Language : Korean
Default : No
Forced : No

Text #21
ID : 23
Format : UTF-8
Codec ID : S_TEXT/UTF8
Codec ID/Info : UTF-8 Plain Text
Duration : 40 min 48 s
Bit rate : 61 b/s
Frame rate : 0.234 FPS
Count of elements : 574
Stream size : 18.5 KiB (0%)
Title : Bahasa Malaysia
Language : Malay
Default : No
Forced : No

Text #22
ID : 24
Format : UTF-8
Codec ID : S_TEXT/UTF8
Codec ID/Info : UTF-8 Plain Text
Duration : 40 min 48 s
Bit rate : 58 b/s
Frame rate : 0.204 FPS
Count of elements : 500
Stream size : 17.5 KiB (0%)
Title : Norsk Bokm?l
Language : Norwegian Bokmal
Default : No
Forced : No

Text #23
ID : 25
Format : UTF-8
Codec ID : S_TEXT/UTF8
Codec ID/Info : UTF-8 Plain Text
Duration : 40 min 48 s
Bit rate : 58 b/s
Frame rate : 0.214 FPS
Count of elements : 525
Stream size : 17.5 KiB (0%)
Title : Nederlands
Language : Dutch
Default : No
Forced : No

Text #24
ID : 26
Format : UTF-8
Codec ID : S_TEXT/UTF8
Codec ID/Info : UTF-8 Plain Text
Duration : 40 min 48 s
Bit rate : 62 b/s
Frame rate : 0.240 FPS
Count of elements : 587
Stream size : 18.6 KiB (0%)
Title : Polski
Language : Polish
Default : No
Forced : No

Text #25
ID : 27
Format : UTF-8
Codec ID : S_TEXT/UTF8
Codec ID/Info : UTF-8 Plain Text
Duration : 40 min 48 s
Bit rate : 66 b/s
Frame rate : 0.238 FPS
Count of elements : 583
Stream size : 19.8 KiB (0%)
Title : Português
Language : Portuguese
Default : No
Forced : No

Text #26
ID : 28
Format : UTF-8
Codec ID : S_TEXT/UTF8
Codec ID/Info : UTF-8 Plain Text
Duration : 38 min 23 s
Bit rate : 75 b/s
Frame rate : 0.260 FPS
Count of elements : 600
Stream size : 21.3 KiB (0%)
Title : Português (Brasil)
Language : Portuguese
Default : No
Forced : No

Text #27
ID : 29
Format : UTF-8
Codec ID : S_TEXT/UTF8
Codec ID/Info : UTF-8 Plain Text
Duration : 40 min 48 s
Bit rate : 63 b/s
Frame rate : 0.234 FPS
Count of elements : 573
Stream size : 18.9 KiB (0%)
Title : Roman?
Language : Romanian
Default : No
Forced : No

Text #28
ID : 30
Format : UTF-8
Codec ID : S_TEXT/UTF8
Codec ID/Info : UTF-8 Plain Text
Duration : 40 min 51 s
Bit rate : 102 b/s
Frame rate : 0.237 FPS
Count of elements : 582
Stream size : 30.6 KiB (0%)
Title : Русский
Language : Russian
Default : No
Forced : No

Text #29
ID : 31
Format : UTF-8
Codec ID : S_TEXT/UTF8
Codec ID/Info : UTF-8 Plain Text
Duration : 40 min 48 s
Bit rate : 64 b/s
Frame rate : 0.191 FPS
Count of elements : 467
Stream size : 19.2 KiB (0%)
Title : Svenska
Language : Swedish
Default : No
Forced : No

Text #30
ID : 32
Format : UTF-8
Codec ID : S_TEXT/UTF8
Codec ID/Info : UTF-8 Plain Text
Duration : 40 min 48 s
Bit rate : 162 b/s
Frame rate : 0.243 FPS
Count of elements : 596
Stream size : 48.5 KiB (0%)
Title : ???
Language : Thai
Default : No
Forced : No

Text #31
ID : 33
Format : UTF-8
Codec ID : S_TEXT/UTF8
Codec ID/Info : UTF-8 Plain Text
Duration : 40 min 45 s
Bit rate : 64 b/s
Frame rate : 0.234 FPS
Count of elements : 572
Stream size : 19.1 KiB (0%)
Title : Türk?e
Language : Turkish
Default : No
Forced : No

Text #32
ID : 34
Format : UTF-8
Codec ID : S_TEXT/UTF8
Codec ID/Info : UTF-8 Plain Text
Duration : 40 min 48 s
Bit rate : 104 b/s
Frame rate : 0.242 FPS
Count of elements : 593
Stream size : 31.4 KiB (0%)
Title : Укра?нська
Language : Ukrainian
Default : No
Forced : No

Text #33
ID : 35
Format : UTF-8
Codec ID : S_TEXT/UTF8
Codec ID/Info : UTF-8 Plain Text
Duration : 40 min 48 s
Bit rate : 82 b/s
Frame rate : 0.239 FPS
Count of elements : 584
Stream size : 24.6 KiB (0%)
Title : Ti?ng Vi?t
Language : Vietnamese
Default : No
Forced : No

Menu
00:00:00.000 : en:Part 01
00:39:03.000 : en:Credits


点击图片可查看大图

软字幕无法在截图上展现,HDR版本/杜比视界版本截图会出现颜色异常,请使用支持的设备播放!



1 个附件 售价 大小 下载 时间

A.Man.in.Full.S01.2024.2160p.NF.WEB-DL.DDP5.1.H.265-LelveTV[1LOU.ME].torrent 0 金币 88.51K 182 次 8天前

#1楼
发帖时间:2024-05-16 08:38:58   |   回复数:0
游客组