BILL36
隐世仙人♂

[2024] [大陆] [剧情] [WEB-1080P] 新生[第10集][国语配音/中文字幕].Regeneration.S01.2024.1080p.WEB-DL.H264.AAC-BlackTV 0.31GB

-->

完整标题:新生[第10集][国语配音/中文字幕].Regeneration.S01.2024.1080p.WEB-DL.H264.AAC-BlackTV 0.31GB



◎标  题 新生
◎译  名 费可的晚宴 / Regeneration
◎年  代 2024
◎产  地 中国大陆
◎类  别 剧情 / 悬疑
◎语  言 汉语普通话
◎IMDb链接 https://www.imdb.com/title/tt28178829/
◎豆瓣链接 https://movie.douban.com/subject/36127872/
◎导  演 申奥 Ao Shen
◎编  剧 申奥 Ao Shen
      张艺凡 Emily Zhang
      高博洋 Boyang Gao
      郑林 Lin Zheng
◎演  员 井柏然 Boran Jing
      周依然 Yiran Zhou
      王砚辉 Yanhui Wang
      黄觉 Jue Huang
      张艺凡 Yifan Zhang
      彭杨 Yang Peng
      何廖侣匀 Lüyun Heliao
      陈雨贤 Yuxian Chen
      高博洋 Boyang Gao

◎简  介
    一场关于费可(井柏然 饰)的追思会,女记者何珊(周依然 饰)与五位陌生人一同受邀。他们都跟费可有着不为人知的过往,但他们发现所认识的费可并不是同一个人。费可到底是谁?众人展开回溯,逐步揭开了关于费可的真相……

部分资源为软字幕,移动端推荐播放器:MxPlayer,nPlayer,infuse ,其他播放器请自行尝试。

部分资源为软字幕,电脑端推荐播放器:PotPlayer,完美解码,KMPLAYER,其他播放器请自行尝试。

下载端推荐纯BT下载软件:qBittorrent,Bitcomet,uTorrent ,其他下载软件请自行尝试。不支持吸血迅雷。

##### MediaInfo ######
General
Unique ID : 280483768213355987269726993902670135766 (0xD3033574AE713D0116571E13CC7B41D6)
Complete name : Regeneration.S01E10.2024.1080p.WEB-DL.H264.AAC-BlackTV.mkv
Duration : 51 min 23 s
Overall bit rate : 861 kb/s

Video
ID : 1
Format : AVC
Format/Info : Advanced Video Codec
Format profile : High@L5
Format settings : CABAC / 5 Ref Frames
Format settings, CABAC : Yes
Format settings, Reference frames : 5 frames
Codec ID : V_MPEG4/ISO/AVC
Duration : 51 min 23 s
Bit rate : 762 kb/s
Width : 1 920 pixels
Height : 1 080 pixels
Display aspect ratio : 16:9
Frame rate mode : Constant
Frame rate : 25.000 FPS
Color space : YUV
Chroma subsampling : 4:2:0
Bit depth : 8 bits
Scan type : Progressive
Bits/(Pixel*Frame) : 0.015
Stream size : 280 MiB (89%)
Language : Chinese
Default : Yes
Forced : No
Color range : Limited
Color primaries : BT.709
Transfer characteristics : BT.709
Matrix coefficients : BT.709
VENDOR_ID : [0][0][0][0]

Audio
ID : 2
Format : AAC LC
Format/Info : Advanced Audio Codec Low Complexity
Codec ID : A_AAC-2
Duration : 51 min 23 s
Bit rate : 96.0 kb/s
Channel(s) : 2 channels
Channel layout : L R
Sampling rate : 44.1 kHz
Frame rate : 43.066 FPS (1024 SPF)
Compression mode : Lossy
Stream size : 35.3 MiB (11%)
Title : Mandarin [AAC2.0]
Language : Chinese
Default : No
Forced : No
VENDOR_ID : [0][0][0][0]

Menu
00:04:04.926 : zh:刘漠接机陈佳佳 二人相处中渐生情意
00:11:37.583 : zh:陈总棒打鸳鸯 刘漠被迫离开佳佳
00:22:24.093 : zh:佳佳车祸死亡 陈总交代刘漠找费可报仇
00:30:31.509 : zh:何珊刘漠联手阻止陈总 何珊剖白内心
00:36:00.474 : zh:陈总欲改变航向 船上众人艰难求生


点击图片可查看大图

软字幕无法在截图上展现,HDR版本/杜比视界版本截图会出现颜色异常,请使用支持的设备播放!



1 个附件 售价 大小 下载 时间

Regeneration.S01.2024.1080p.WEB-DL.H264.AAC-BlackTV[1LOU.ME].torrent 0 金币 3.25K 294 次 8天前

#1楼
发帖时间:2024-05-16 07:41:34   |   回复数:0
游客组