BILL36
隐世仙人♂

[2024] [日本] [喜剧] [WEB-1080P] 碰之道[第09集][简繁英字幕].Pon.no.Michi.S01.2024.1080p.B-Global.WEB-DL.x264.AAC-ZeroTV 0.2

-->

完整标题:碰之道[第09集][简繁英字幕].Pon.no.Michi.S01.2024.1080p.B-Global.WEB-DL.x264.AAC-ZeroTV 0.29GB



◎标  题 碰之道
◎译  名 Pon no Michi
◎片  名 ぽんのみち
◎年  代 2024
◎产  地 日本
◎类  别 喜剧 / 动画
◎语  言 日语
◎IMDb链接 https://www.imdb.com/title//
◎豆瓣链接 https://movie.douban.com/subject/36419273/
◎导  演 南川达马 Minamikawa Tatsuma
◎编  剧 南川达马 Minamikawa Tatsuma
◎演  员 前田佳织里 Kaori Maeda
      佐伯伊织 Saeki Iori
      若山诗音 Shion Wakayama
      近藤唯 Kondou Yui
      山村响 Hibiku Yamamura
      大塚明夫 Akio Ôtsuka

◎简  介
    故事舞台位于广岛县尾道市,描写女高中生与麻将的日常故事。

部分资源为软字幕,移动端推荐播放器:MxPlayer,nPlayer,infuse ,其他播放器请自行尝试。

部分资源为软字幕,电脑端推荐播放器:PotPlayer,完美解码,KMPLAYER,其他播放器请自行尝试。

##### MediaInfo ######
General
Unique ID : 313056811320854487408058307131772511091 (0xEB848C7906DA0612D04AEE7624EC2373)
Complete name : Pon.no.Michi.S01E09.2024.1080p.WEB-DL.x264.AAC-ZeroTV.mkv
Duration : 24 min 15 s
Overall bit rate : 1 682 kb/s

Video
ID : 1
Format : AVC
Format/Info : Advanced Video Codec
Format profile : High@L5
Format settings : CABAC / 8 Ref Frames
Format settings, CABAC : Yes
Format settings, Reference frames : 8 frames
Codec ID : V_MPEG4/ISO/AVC
Duration : 24 min 11 s
Bit rate : 1 496 kb/s
Width : 1 920 pixels
Height : 1 080 pixels
Display aspect ratio : 16:9
Frame rate mode : Constant
Frame rate : 23.976 (24000/1001) FPS
Original frame rate : 23.976 (23976/1000) FPS
Color space : YUV
Chroma subsampling : 4:2:0
Bit depth : 8 bits
Scan type : Progressive
Bits/(Pixel*Frame) : 0.030
Stream size : 259 MiB (89%)
Title : Japanese
Language : Japanese
Default : Yes
Forced : No
Color range : Limited
Color primaries : BT.709
Transfer characteristics : BT.709
Matrix coefficients : BT.709

Audio
ID : 2
Format : AAC LC
Format/Info : Advanced Audio Codec Low Complexity
Codec ID : A_AAC-2
Duration : 24 min 12 s
Bit rate : 186 kb/s
Channel(s) : 2 channels
Channel layout : L R
Sampling rate : 48.0 kHz
Frame rate : 46.875 FPS (1024 SPF)
Compression mode : Lossy
Stream size : 32.2 MiB (11%)
Title : Japanese
Language : Japanese
Default : Yes
Forced : No

Text #1
ID : 3
Format : UTF-8
Codec ID : S_TEXT/UTF8
Codec ID/Info : UTF-8 Plain Text
Duration : 22 min 40 s
Bit rate : 55 b/s
Frame rate : 0.282 FPS
Count of elements : 383
Stream size : 9.21 KiB (0%)
Title : Chinese Simplified
Language : Chinese
Default : Yes
Forced : No

Text #2
ID : 4
Format : UTF-8
Codec ID : S_TEXT/UTF8
Codec ID/Info : UTF-8 Plain Text
Duration : 22 min 40 s
Bit rate : 55 b/s
Frame rate : 0.282 FPS
Count of elements : 383
Stream size : 9.21 KiB (0%)
Title : Chinese Traditional
Language : Chinese
Default : No
Forced : No

Text #3
ID : 5
Format : ASS
Codec ID : S_TEXT/ASS
Codec ID/Info : Advanced Sub Station Alpha
Duration : 22 min 40 s
Bit rate : 110 b/s
Frame rate : 0.239 FPS
Count of elements : 325
Compression mode : Lossless
Stream size : 18.4 KiB (0%)
Title : English
Language : English
Default : No
Forced : No

Text #4
ID : 6
Format : ASS
Codec ID : S_TEXT/ASS
Codec ID/Info : Advanced Sub Station Alpha
Duration : 22 min 45 s
Bit rate : 203 b/s
Frame rate : 0.279 FPS
Count of elements : 381
Compression mode : Lossless
Stream size : 33.9 KiB (0%)
Title : ???????
Language : Thai
Default : No
Forced : No

Text #5
ID : 7
Format : ASS
Codec ID : S_TEXT/ASS
Codec ID/Info : Advanced Sub Station Alpha
Duration : 22 min 40 s
Bit rate : 108 b/s
Frame rate : 0.232 FPS
Count of elements : 316
Compression mode : Lossless
Stream size : 18.0 KiB (0%)
Title : Ti?ng Vi?t
Language : Vietnamese
Default : No
Forced : No

Text #6
ID : 8
Format : UTF-8
Codec ID : S_TEXT/UTF8
Codec ID/Info : UTF-8 Plain Text
Duration : 22 min 48 s
Bit rate : 58 b/s
Frame rate : 0.250 FPS
Count of elements : 342
Stream size : 9.79 KiB (0%)
Title : Bahasa Indonesia
Language : Indonesian
Default : No
Forced : No


点击图片可查看大图

软字幕无法在截图上展现,HDR版本/杜比视界版本截图会出现颜色异常,请使用支持的设备播放!



1 个附件 售价 大小 下载 时间

Pon.no.Michi.S01.2024.1080p.B-Global.WEB-DL.x264.AAC-ZeroTV[1LOU.ME].torrent 0 金币 3.63K 63 次 1月前

#1楼
发帖时间:2024-03-02 09:56:29   |   回复数:0
游客组