BILL36
隐世仙人♂

[2024] [其它] [剧情] [WEB-1080P] 谁杀了她[第07集][中文字幕].Kill.Sera.S01.1080p.KKTV.WEB-DL.AAC2.0.H.264-BlackTV 1.04GB

-->

完整标题:谁杀了她[第07集][中文字幕].Kill.Sera.S01.1080p.KKTV.WEB-DL.AAC2.0.H.264-BlackTV 1.04GB



◎标  题 谁杀了她
◎译  名 Kill Sera Sera
◎年  代 2024
◎产  地 新加坡
◎类  别 剧情 / 爱情 / 悬疑 / 惊悚
◎语  言 汉语普通话
◎IMDb链接 https://www.imdb.com/title//
◎豆瓣链接 https://movie.douban.com/subject/36309815/
◎导  演 胡凉财 Liang Cai Oh
◎编  剧 洪汐 Rebecca Leow
◎演  员 宣萱 Jessica Hester Hsuan
      温升豪 James Wen
      李铭顺 Ming-shun Lee
      徐彬 Bin Xu
      黄暄婷 Chantalle Ng
      张值豪 Damien Teo
      林昭婷 Kiki Lim
      刘子绚 Jesseca Liu
      林绿 Lynn Lim
      曹国辉 Terence Cao
      张汶祥 Thomas Zhang
      许美珍 Cynthia Koh
      林明伦 Darren Lim
      方伟杰 Ian Fang
      陈秀环 Xiuhuan Chen
      陈慧慧 Huihui Chen
      黄嫊芳 Lina Ng
      陈美心 Meixin Chen

◎简  介
    孙善琪(黄暄婷饰)在闰年2月29日晚遭杀害,截肢大腿被套上日本浮世绘丝袜弃河寻获。母亲若云(宣萱饰)后来从警方得知乖乖女居然是色情网站的网主,客户可付钱让她脱衣。完美家庭顿时破裂,若云与丈夫孙艾伦(李铭顺饰)离婚。若云坚信女儿是被连环杀手所杀的。为了引对方再出手,若云模仿对方干案手法谋害另壹名少女。选择了仇更仇的不归路,若云得到了什么?凶手,究竟是谁?

部分资源为软字幕,移动端推荐播放器:MxPlayer,nPlayer,infuse ,其他播放器请自行尝试。

部分资源为软字幕,电脑端推荐播放器:PotPlayer,完美解码,KMPLAYER,其他播放器请自行尝试。

##### MediaInfo ######
General
Unique ID : 120139387576998613239740856385212621429 (0x5A620120964750F22785CFF4C7A9A275)
Complete name : Kill.Sera.S01E07.1080p.KKTV.WEB-DL.AAC2.0.H.264-BlackTV.mkv
Duration : 46 min 5 s
Overall bit rate : 3 236 kb/s

Video
ID : 1
Format : AVC
Format/Info : Advanced Video Codec
Format profile : [email protected]
Format settings : CABAC / 5 Ref Frames
Format settings, CABAC : Yes
Format settings, Reference frames : 5 frames
Codec ID : V_MPEG4/ISO/AVC
Duration : 46 min 5 s
Bit rate : 3 000 kb/s
Width : 1 920 pixels
Height : 1 080 pixels
Display aspect ratio : 16:9
Frame rate mode : Constant
Frame rate : 25.000 FPS
Color space : YUV
Chroma subsampling : 4:2:0
Bit depth : 8 bits
Scan type : Progressive
Bits/(Pixel*Frame) : 0.058
Stream size : 1 003 MiB (94%)
Writing library : x264 core 142
Encoding settings : cabac=1 / ref=5 / deblock=1:0:0 / analyse=0x3:0x113 / me=umh / subme=9 / psy=1 / psy_rd=1.00:0.00 / mixed_ref=1 / me_range=32 / chroma_me=1 / trellis=1 / 8x8dct=1 / cqm=0 / deadzone=21,11 / fast_pskip=1 / chroma_qp_offset=-2 / threads=12 / lookahead_threads=1 / sliced_threads=0 / nr=0 / decimate=1 / interlaced=0 / bluray_compat=0 / stitchable=1 / constrained_intra=0 / bframes=3 / b_pyramid=2 / b_adapt=1 / b_bias=0 / direct=3 / weightb=1 / open_gop=0 / weightp=2 / keyint=25 / keyint_min=2 / scenecut=0 / intra_refresh=0 / rc_lookahead=37 / rc=abr / mbtree=1 / bitrate=3000 / ratetol=1.0 / qcomp=0.60 / qpmin=0 / qpmax=69 / qpstep=4 / vbv_maxrate=4500 / vbv_bufsize=6750 / nal_hrd=none / filler=0 / ip_ratio=1.40 / aq=1:1.00
Language : English
Default : Yes
Forced : No

Audio
ID : 2
Format : AAC LC
Format/Info : Advanced Audio Codec Low Complexity
Codec ID : A_AAC-2
Duration : 46 min 5 s
Bit rate : 192 kb/s
Channel(s) : 2 channels
Channel layout : L R
Sampling rate : 44.1 kHz
Frame rate : 43.066 FPS (1024 SPF)
Compression mode : Lossy
Stream size : 63.3 MiB (6%)
Language : English
Default : Yes
Forced : No

Text #1
ID : 3
Format : UTF-8
Codec ID : S_TEXT/UTF8
Codec ID/Info : UTF-8 Plain Text
Duration : 42 min 55 s
Bit rate : 32 b/s
Frame rate : 0.174 FPS
Count of elements : 448
Stream size : 10.1 KiB (0%)
Language : Chinese
Default : No
Forced : No

Text #2
ID : 4
Format : UTF-8
Codec ID : S_TEXT/UTF8
Codec ID/Info : UTF-8 Plain Text
Duration : 42 min 55 s
Bit rate : 32 b/s
Frame rate : 0.174 FPS
Count of elements : 448
Stream size : 10.1 KiB (0%)
Title : Traditional
Language : Chinese
Default : No
Forced : No


点击图片可查看大图

软字幕无法在截图上展现,HDR版本/杜比视界版本截图会出现颜色异常,请使用支持的设备播放!



1 个附件 售价 大小 下载 时间

Kill.Sera.S01.1080p.KKTV.WEB-DL.AAC2.0.H.264-BlackTV[1LOU.ME].torrent 0 金币 5.52K 154 次 1月前

#1楼
发帖时间:2024-03-02 09:52:40   |   回复数:0
游客组