BILL36
隐世仙人♂

[2024] [韩国] [剧情] [WEB-1080P] 财阀X刑警[第09集][中文字幕].Flex.x.Cop.S01.1080p.DSNP.WEB-DL.AAC.2.0.H.264-BlackTV 2.10GB

-->

完整标题:财阀X刑警[第09集][中文字幕].Flex.x.Cop.S01.1080p.DSNP.WEB-DL.AAC.2.0.H.264-BlackTV 2.10GB



◎标  题 财阀X刑警
◎译  名 Flex x Cop
◎片  名 재벌X형사
◎年  代 2024
◎产  地 韩国
◎类  别 剧情
◎语  言 韩语
◎IMDb链接 https://www.imdb.com/title/tt30413181/
◎豆瓣链接 https://movie.douban.com/subject/36300898/
◎导  演 金在洪 Jae-hong Kim
◎编  剧 金巴达 Ba-da Kim
◎演  员 安普贤 Bo-hyun Ahn
      朴智炫 Ji-hyun Park
      郑嘉熙 Gahee Jung
      张铉诚 Hyeong-seong Jang
      权海骁 Hae-hyo Kwon
      尹有善 Yu-seon Yun
      金明秀 Myoeng-su Kim
      徐东元 Dong-won Seo
      李娜恩 Na-eun Lee
      郭时旸 Si-yang Kwak

◎简  介
    财阀富三代警察(安普贤 饰)误打误撞加入重案组,从一开始同组长(朴智炫 饰)大吵大骂,到之后联手合作突破部门的盲点,到最后擦出火花。

部分资源为软字幕,移动端推荐播放器:MxPlayer,nPlayer,infuse ,其他播放器请自行尝试。

部分资源为软字幕,电脑端推荐播放器:PotPlayer,完美解码,KMPLAYER,其他播放器请自行尝试。

##### MediaInfo ######
General
Unique ID : 123715854843861021131085762927648536557 (0x5D12CE93E08A6A5B024750ED85AF77ED)
Complete name : Flex.x.Cop.S01E09.Episode.9.1080p.DSNP.WEB-DL.AAC.2.0.H.264-BlackTV.mkv
Duration : 58 min 47 s
Overall bit rate mode : Variable
Overall bit rate : 5 106 kb/s

Video
ID : 1
Format : AVC
Format/Info : Advanced Video Codec
Format profile : High@L4
Format settings : CABAC / 4 Ref Frames
Format settings, CABAC : Yes
Format settings, Reference frames : 4 frames
Codec ID : V_MPEG4/ISO/AVC
Duration : 58 min 47 s
Bit rate mode : Variable
Bit rate : 4 978 kb/s
Maximum bit rate : 12.7 Mb/s
Width : 1 920 pixels
Height : 1 080 pixels
Display aspect ratio : 16:9
Frame rate mode : Constant
Frame rate : 23.976 (24000/1001) FPS
Color space : YUV
Chroma subsampling : 4:2:0
Bit depth : 8 bits
Scan type : Progressive
Bits/(Pixel*Frame) : 0.100
Stream size : 2.04 GiB (97%)
Language : Korean
Default : Yes
Forced : No
Color range : Limited
Color primaries : BT.709
Transfer characteristics : BT.709
Matrix coefficients : BT.709

Audio
ID : 2
Format : AAC LC
Format/Info : Advanced Audio Codec Low Complexity
Codec ID : A_AAC-2
Duration : 58 min 47 s
Bit rate : 125 kb/s
Channel(s) : 2 channels
Channel layout : L R
Sampling rate : 48.0 kHz
Frame rate : 46.875 FPS (1024 SPF)
Compression mode : Lossy
Stream size : 52.7 MiB (2%)
Language : Korean
Default : Yes
Forced : No

Text #1
ID : 3
Format : UTF-8
Codec ID : S_TEXT/UTF8
Codec ID/Info : UTF-8 Plain Text
Duration : 58 min 45 s
Bit rate : 65 b/s
Frame rate : 0.281 FPS
Count of elements : 992
Stream size : 28.3 KiB (0%)
Title : SDH
Language : Korean
Default : No
Forced : No

Text #2
ID : 4
Format : UTF-8
Codec ID : S_TEXT/UTF8
Codec ID/Info : UTF-8 Plain Text
Duration : 58 min 8 s
Bit rate : 40 b/s
Frame rate : 0.222 FPS
Count of elements : 775
Stream size : 17.4 KiB (0%)
Title : Traditional
Language : Chinese
Default : No
Forced : No

Text #3
ID : 5
Format : UTF-8
Codec ID : S_TEXT/UTF8
Codec ID/Info : UTF-8 Plain Text
Duration : 58 min 45 s
Bit rate : 56 b/s
Frame rate : 0.290 FPS
Count of elements : 1022
Stream size : 24.3 KiB (0%)
Title : SDH
Language : English
Default : No
Forced : No

Text #4
ID : 6
Format : UTF-8
Codec ID : S_TEXT/UTF8
Codec ID/Info : UTF-8 Plain Text
Duration : 58 min 9 s
Bit rate : 39 b/s
Frame rate : 0.186 FPS
Count of elements : 648
Stream size : 16.8 KiB (0%)
Language : Japanese
Default : No
Forced : No

Menu
00:00:04.004 : en:Intro
00:00:43.001 : en:Scene 1
00:08:43.065 : en:Scene 2
00:23:07.513 : en:Scene 3
00:32:39.626 : en:Scene 4
00:41:01.962 : en:Scene 5
00:50:02.377 : en:Scene 6
00:56:58.502 : en:Credits
00:57:42.296 : en:Post-Credits Scene


点击图片可查看大图

软字幕无法在截图上展现,HDR版本/杜比视界版本截图会出现颜色异常,请使用支持的设备播放!



1 个附件 售价 大小 下载 时间

Flex.x.Cop.S01.1080p.DSNP.WEB-DL.AAC.2.0.H.264-BlackTV[1LOU.ME].torrent 0 金币 8.17K 490 次 1月前

#1楼
发帖时间:2024-03-02 09:50:49   |   回复数:0
游客组