BILL36
隐世仙人♂

[2023] [日本] [动画] [WEB-1080P] 迷宫饭[第09集][简繁特效字幕].Delicious.in.Dungeon.S01.2024.1080p.DSNP.WEB-DL.H264.DDP5.1-Ze

-->

完整标题:迷宫饭[第09集][简繁特效字幕].Delicious.in.Dungeon.S01.2024.1080p.DSNP.WEB-DL.H264.DDP5.1-ZeroTV 0.94GB



◎标  题 迷宫饭
◎译  名 舌尖上的地下城 / Delicious in Dungeon / Dungeon Meshi
◎片  名 ダンジョン飯
◎年  代 2023
◎产  地 日本
◎类  别 动画 / 奇幻 / 冒险
◎语  言 日语
◎IMDb评分 7.4/10 (378人评价)
◎IMDb链接 https://www.imdb.com/title/tt21621494/
◎豆瓣评分 9.0/10 (2737人评价)
◎豆瓣链接 https://movie.douban.com/subject/35801594/
◎导  演 宫岛善博 Miyajima Yoshihiro
◎编  剧 上野贵美子 Kimiko Ueno
      九井谅子 Ryoko Kui
◎演  员 熊谷健太郎 Kentaro Kumagai
      千本木彩花 Sayaka Senbongi
      泊明日菜 Tomari Asuna
      中博史 Hiroshi Naka
      早见沙织 Saori Hayami
      川田绅司 Shinji Kawada

◎简  介
    进入《迷宫饭》弱肉强食的世界,不想被吃,就要勇敢开吃。   地下城深处,莱欧斯的妹妹惨遭炎龙吞噬,莱欧斯自己也差点没命,好不容易才逃出生天。   现在,他决定要重返地牢,但他的钱和粮食却都还留在地下城深处。眼看妹妹困在龙肚里,随时都可能被消化殆尽,莱欧斯决定边走边猎食!无论是史莱姆、蛇怪、宝箱怪,甚至恶龙,来一个吃一个,来两个吃一双!   冒险者,前进吧!勇闯地牢深处,吃光所有挡路的魔物。

部分资源为软字幕,移动端推荐播放器:MxPlayer,nPlayer,infuse ,其他播放器请自行尝试。

部分资源为软字幕,电脑端推荐播放器:PotPlayer,完美解码,KMPLAYER,其他播放器请自行尝试。

##### MediaInfo ######
General
Unique ID : 256255064320875027153557283150974565921 (0xC0C8EE201F44E9674139592D8DCA3E21)
Complete name : Delicious.in.Dungeon.S01E09.2024.1080p.DSNP.WEB-DL.H264.DDP5.1-ZeroTV.mkv
Duration : 26 min 32 s
Overall bit rate mode : Variable
Overall bit rate : 5 050 kb/s

Video
ID : 1
Format : AVC
Format/Info : Advanced Video Codec
Format profile : High@L4
Format settings : CABAC / 4 Ref Frames
Format settings, CABAC : Yes
Format settings, Reference frames : 4 frames
Codec ID : V_MPEG4/ISO/AVC
Duration : 26 min 32 s
Bit rate mode : Variable
Bit rate : 4 276 kb/s
Maximum bit rate : 12.7 Mb/s
Width : 1 920 pixels
Height : 1 080 pixels
Display aspect ratio : 16:9
Frame rate mode : Constant
Frame rate : 23.976 (24000/1001) FPS
Color space : YUV
Chroma subsampling : 4:2:0
Bit depth : 8 bits
Scan type : Progressive
Bits/(Pixel*Frame) : 0.086
Stream size : 811 MiB (85%)
Default : Yes
Forced : No
Color range : Limited
Color primaries : BT.709
Transfer characteristics : BT.709
Matrix coefficients : BT.709

Audio #1
ID : 2
Format : AAC LC
Format/Info : Advanced Audio Codec Low Complexity
Codec ID : A_AAC-2
Duration : 26 min 32 s
Bit rate : 125 kb/s
Channel(s) : 2 channels
Channel layout : L R
Sampling rate : 48.0 kHz
Frame rate : 46.875 FPS (1024 SPF)
Compression mode : Lossy
Stream size : 23.8 MiB (2%)
Language : Japanese
Default : No
Forced : No

Audio #2
ID : 3
Format : E-AC-3
Format/Info : Enhanced AC-3
Commercial name : Dolby Digital Plus
Codec ID : A_EAC3
Duration : 26 min 32 s
Bit rate mode : Constant
Bit rate : 640 kb/s
Channel(s) : 6 channels
Channel layout : L R C LFE Ls Rs
Sampling rate : 48.0 kHz
Frame rate : 31.250 FPS (1536 SPF)
Compression mode : Lossy
Stream size : 121 MiB (13%)
Title : NF-Jpanese
Language : Japanese
Service kind : Complete Main
Default : Yes
Forced : No

Text #1
ID : 4
Format : ASS
Codec ID : S_TEXT/ASS
Codec ID/Info : Advanced Sub Station Alpha
Duration : 26 min 24 s
Bit rate : 154 b/s
Frame rate : 0.340 FPS
Count of elements : 538
Compression mode : Lossless
Stream size : 29.8 KiB (0%)
Title : 简体特效
Language : Chinese
Default : Yes
Forced : No

Text #2
ID : 5
Format : ASS
Codec ID : S_TEXT/ASS
Codec ID/Info : Advanced Sub Station Alpha
Duration : 26 min 24 s
Bit rate : 154 b/s
Frame rate : 0.340 FPS
Count of elements : 538
Compression mode : Lossless
Stream size : 29.8 KiB (0%)
Title : 繁体特效
Language : Chinese
Default : No
Forced : No

Text #3
ID : 6
Format : UTF-8
Codec ID : S_TEXT/UTF8
Codec ID/Info : UTF-8 Plain Text
Duration : 25 min 8 s
Bit rate : 62 b/s
Frame rate : 0.294 FPS
Count of elements : 444
Stream size : 11.5 KiB (0%)
Language : Chinese
Default : No
Forced : No

Text #4
ID : 7
Format : UTF-8
Codec ID : S_TEXT/UTF8
Codec ID/Info : UTF-8 Plain Text
Duration : 25 min 8 s
Bit rate : 63 b/s
Frame rate : 0.296 FPS
Count of elements : 446
Stream size : 11.7 KiB (0%)
Language : Chinese
Default : No
Forced : No


点击图片可查看大图

软字幕无法在截图上展现,HDR版本/杜比视界版本截图会出现颜色异常,请使用支持的设备播放!



1 个附件 售价 大小 下载 时间

Delicious.in.Dungeon.S01.2024.1080p.DSNP.WEB-DL.H264.DDP5.1-ZeroTV[1LOU.ME].torrent 0 金币 5.28K 959 次 1月前

#1楼
发帖时间:2024-03-02 09:49:47   |   回复数:0
游客组