BILL36
隐世仙人♂

[2024] [日本] [动画] [WEB-1080P] 治愈魔法的错误使用方法[第09集][中文字幕].2024.1080p.Baha.WEB-DL.x264.AAC-ZeroTV 0.58GB

-->

完整标题:治愈魔法的错误使用方法[第09集][中文字幕].2024.1080p.Baha.WEB-DL.x264.AAC-ZeroTV 0.58GB



◎标  题 治愈魔法的错误使用方法
◎译  名 治愈魔法的错误使用方法 ~奔赴战场的治疗人员~ / 治癒魔法の間違った使い方 ~戦場を駆ける回復要員~
◎片  名 治癒魔法の間違った使い方
◎年  代 2024
◎产  地 日本
◎类  别 动画
◎语  言 日语
◎IMDb链接 https://www.imdb.com/title//
◎豆瓣链接 https://movie.douban.com/subject/35567854/
◎导  演 绪方隆秀 Ogata Takahide
◎编  剧 安川正吾 Shogo Yasukawa
◎演  员 坂田将吾 Shogo Sakata
      七濑彩夏 Ayaka Nanase
      高梨谦吾 Kengo Takanashi
      田中敦子 Atsuko Tanaka
      会泽纱弥 Aizawa Saya
      渡边明乃 Akeno Watanabe
      中村源太 Nakamura Genta
      青山吉能 Aoyama Yoshino
      伊藤健太郎 Kentaro Ito
      堀井茶渡 Chad Horii
      奈良彻 Tooru Nara
      堀总士郎 Hori Soushirou
      藤井隼 Hayato Fujii
      上田丽奈 Reina Ueda
      家中宏 Hiroshi Yanaka
      寺杣昌纪 Masaki Terasoma
      千叶进步 Susumu Chiba
      长绳麻理亚 Maria Naganawa
      小松昌平 Komatsu Shouhei
      上田瞳 Hitomi Ueda
      羽多野涉 Wataru Hatano

◎简  介
    平凡的高中生兔里於返家途中巧遇学生会长铃音及同班同学一树,不过这时三人却被突然出现的魔法阵吞噬,并转移至异世界去了。为了拯救王国免於魔王军的侵袭,三人以“勇者”的身分被召唤到这个世界──可是拥有勇者素质的只有一树与铃音,兔里纯粹是遭遭受了波及!不过自从兔里身上发现了稀有属性的“治愈魔法使”潜能後,情况一下子完全改观了。自称救命团团长的女性.罗丝强行带走兔里,逼迫他加入救命团。在那里等著兔里的是凶神恶煞的夥伴,以及利用“治愈魔法的错误使用法”进行训练的地狱生活──。打破常识的“回复要员”展开一连串的异世界奇幻冒险,充满笑料与武打场面的轻喜剧正式开幕!

部分资源为软字幕,移动端推荐播放器:MxPlayer,nPlayer,infuse ,其他播放器请自行尝试。

部分资源为软字幕,电脑端推荐播放器:PotPlayer,完美解码,KMPLAYER,其他播放器请自行尝试。

##### MediaInfo ######
General
Complete name : Chiyu.Mahou.no.Machigatta.Tsukaikata.S01E09.2024.1080p.Baha.WEB-DL.x264.AAC-ZeroTV
Duration : 23 min 40 s
Overall bit rate : 3 475 kb/s

Video
ID : 1
Format : AVC
Format/Info : Advanced Video Codec
Format profile : High@L5
Format settings : CABAC / 4 Ref Frames
Format settings, CABAC : Yes
Format settings, Reference frames : 4 frames
Codec ID : avc1
Codec ID/Info : Advanced Video Coding
Duration : 23 min 40 s
Source duration : 23 min 40 s
Bit rate : 3 158 kb/s
Width : 1 920 pixels
Height : 1 080 pixels
Display aspect ratio : 16:9
Frame rate mode : Variable
Frame rate : 23.976 (24000/1001) FPS
Minimum frame rate : 23.974 FPS
Maximum frame rate : 23.981 FPS
Color space : YUV
Chroma subsampling : 4:2:0
Bit depth : 8 bits
Scan type : Progressive
Bits/(Pixel*Frame) : 0.064
Stream size : 535 MiB (91%)
Source stream size : 535 MiB (91%)
Writing library : x264 core 161 r3018 db0d417
Encoding settings : cabac=1 / ref=4 / deblock=1:-1:-1 / analyse=0x3:0x113 / me=umh / subme=9 / psy=1 / psy_rd=1.00:0.00 / mixed_ref=1 / me_range=16 / chroma_me=1 / trellis=2 / 8x8dct=1 / cqm=0 / deadzone=21,11 / fast_pskip=1 / chroma_qp_offset=-2 / threads=24 / lookahead_threads=2 / sliced_threads=0 / nr=0 / decimate=1 / interlaced=0 / bluray_compat=0 / constrained_intra=0 / bframes=8 / b_pyramid=2 / b_adapt=1 / b_bias=0 / direct=3 / weightb=1 / open_gop=0 / weightp=2 / keyint=250 / keyint_min=23 / scenecut=40 / intra_refresh=0 / rc_lookahead=50 / rc=crf / mbtree=1 / crf=21.0 / qcomp=0.60 / qpmin=0 / qpmax=69 / qpstep=4 / vbv_maxrate=12000 / vbv_bufsize=80000 / crf_max=0.0 / nal_hrd=none / filler=0 / ip_ratio=1.40 / aq=3:1.00
Codec configuration box : avcC

Audio
ID : 2
Format : AAC LC
Format/Info : Advanced Audio Codec Low Complexity
Codec ID : mp4a-40-2
Duration : 23 min 40 s
Bit rate mode : Constant
Bit rate : 312 kb/s
Channel(s) : 2 channels
Channel layout : L R
Sampling rate : 48.0 kHz
Frame rate : 46.875 FPS (1024 SPF)
Compression mode : Lossy
Stream size : 52.8 MiB (9%)
Language : Japanese
Default : Yes
Alternate group : 1


点击图片可查看大图

软字幕无法在截图上展现,HDR版本/杜比视界版本截图会出现颜色异常,请使用支持的设备播放!



1 个附件 售价 大小 下载 时间

2024.1080p.Baha.WEB-DL.x264.AAC-ZeroTV[1LOU.ME].torrent 0 金币 4.38K 70 次 1月前

#1楼
发帖时间:2024-03-02 09:47:53   |   回复数:0
游客组