BILL36
隐世仙人♂

[2024] [韩国] [真人秀] [WEB-1080P] 公寓404[第01-02集][简繁英字幕].Apartment404.S01.2024.1080p.AMZN.WEB-DL.H264.DDP2.0-ZeroTV

-->

完整标题:公寓404[第01-02集][简繁英字幕].Apartment404.S01.2024.1080p.AMZN.WEB-DL.H264.DDP2.0-ZeroTV 14.12GB



◎标  题 公寓404
◎译  名 Apt 404 / 404公寓 / Apartment404
◎片  名 아파트404
◎年  代 2024
◎产  地 韩国
◎类  别 真人秀
◎语  言 韩语
◎IMDb评分 9.3/10 (79人评价)
◎IMDb链接 https://www.imdb.com/title/tt31037265/
◎豆瓣评分 7.0/10 (172人评价)
◎豆瓣链接 https://movie.douban.com/subject/36591373/
◎导  演 郑哲民 Chul-min Jung
◎演  员 刘在石 Jae-seok Yu
      车太贤 Tae-hyun Cha
      金珍妮 Jennie Kim
      李正河 Jung-ha Lee
      吴娜拉 Na-ra Oh
      梁世灿 Yang Se chan
      崔然竣 Yeon-jun Choi

◎简  介
    一档以公寓为背景进行多种任务的真人秀。

部分资源为软字幕,移动端推荐播放器:MxPlayer,nPlayer,infuse ,其他播放器请自行尝试。

部分资源为软字幕,电脑端推荐播放器:PotPlayer,完美解码,KMPLAYER,其他播放器请自行尝试。

##### MediaInfo ######
General
Unique ID : 116761979745345081829709712516325474741 (0x57D78A1098D2C14EF505EF705CAE81B5)
Complete name : Apartment404.S01E01.2024.1080p.AMZN.WEB-DL.H264.DDP2.0-ZeroTV.mkv
Duration : 1 h 41 min
Overall bit rate : 9 650 kb/s

Video
ID : 1
Format : AVC
Format/Info : Advanced Video Codec
Format profile : High@L4
Format settings : CABAC / 4 Ref Frames
Format settings, CABAC : Yes
Format settings, Reference frames : 4 frames
Codec ID : V_MPEG4/ISO/AVC
Duration : 1 h 40 min
Bit rate mode : Constant
Bit rate : 9 429 kb/s
Nominal bit rate : 10 000 kb/s
Width : 1 920 pixels
Height : 1 080 pixels
Display aspect ratio : 16:9
Frame rate mode : Constant
Frame rate : 29.970 (30000/1001) FPS
Color space : YUV
Chroma subsampling : 4:2:0
Bit depth : 8 bits
Scan type : Progressive
Bits/(Pixel*Frame) : 0.152
Stream size : 6.65 GiB (98%)
Default : Yes
Forced : No
Color range : Limited
Color primaries : BT.709
Transfer characteristics : BT.709
Matrix coefficients : BT.709

Audio
ID : 2
Format : E-AC-3
Format/Info : Enhanced AC-3
Commercial name : Dolby Digital Plus
Codec ID : A_EAC3
Duration : 1 h 40 min
Bit rate mode : Constant
Bit rate : 224 kb/s
Channel(s) : 2 channels
Channel layout : L R
Sampling rate : 48.0 kHz
Frame rate : 31.250 FPS (1536 SPF)
Compression mode : Lossy
Stream size : 162 MiB (2%)
Language : Korean
Service kind : Complete Main
Default : Yes
Forced : No

Text #1
ID : 3
Format : UTF-8
Codec ID : S_TEXT/UTF8
Codec ID/Info : UTF-8 Plain Text
Duration : 1 h 40 min
Bit rate : 149 b/s
Frame rate : 0.392 FPS
Count of elements : 2362
Stream size : 110 KiB (0%)
Title : Saudi Arabia
Language : Arabic
Default : No
Forced : No

Text #2
ID : 4
Format : UTF-8
Codec ID : S_TEXT/UTF8
Codec ID/Info : UTF-8 Plain Text
Duration : 1 h 40 min
Bit rate : 98 b/s
Frame rate : 0.363 FPS
Count of elements : 2194
Stream size : 72.3 KiB (0%)
Language : German
Default : No
Forced : No

Text #3
ID : 5
Format : UTF-8
Codec ID : S_TEXT/UTF8
Codec ID/Info : UTF-8 Plain Text
Duration : 1 h 40 min
Bit rate : 79 b/s
Frame rate : 0.326 FPS
Count of elements : 1969
Stream size : 58.3 KiB (0%)
Language : English
Default : No
Forced : No

Text #4
ID : 6
Format : UTF-8
Codec ID : S_TEXT/UTF8
Codec ID/Info : UTF-8 Plain Text
Duration : 1 h 40 min
Bit rate : 83 b/s
Frame rate : 0.340 FPS
Count of elements : 2051
Stream size : 61.3 KiB (0%)
Title : SDH
Language : English
Default : No
Forced : No

Text #5
ID : 7
Format : UTF-8
Codec ID : S_TEXT/UTF8
Codec ID/Info : UTF-8 Plain Text
Duration : 1 h 40 min
Bit rate : 89 b/s
Frame rate : 0.387 FPS
Count of elements : 2335
Stream size : 66.0 KiB (0%)
Title : Latin American
Language : Spanish
Default : No
Forced : No

Text #6
ID : 8
Format : UTF-8
Codec ID : S_TEXT/UTF8
Codec ID/Info : UTF-8 Plain Text
Duration : 1 h 40 min
Bit rate : 92 b/s
Frame rate : 0.385 FPS
Count of elements : 2320
Stream size : 68.4 KiB (0%)
Title : European
Language : Spanish
Default : No
Forced : No

Text #7
ID : 9
Format : UTF-8
Codec ID : S_TEXT/UTF8
Codec ID/Info : UTF-8 Plain Text
Duration : 1 h 40 min
Bit rate : 91 b/s
Frame rate : 0.389 FPS
Count of elements : 2346
Stream size : 67.3 KiB (0%)
Title : European
Language : French
Default : No
Forced : No

Text #8
ID : 10
Format : UTF-8
Codec ID : S_TEXT/UTF8
Codec ID/Info : UTF-8 Plain Text
Duration : 1 h 40 min
Bit rate : 233 b/s
Frame rate : 0.392 FPS
Count of elements : 2367
Stream size : 172 KiB (0%)
Language : Hindi
Default : No
Forced : No

Text #9
ID : 11
Format : UTF-8
Codec ID : S_TEXT/UTF8
Codec ID/Info : UTF-8 Plain Text
Duration : 1 h 40 min
Bit rate : 90 b/s
Frame rate : 0.390 FPS
Count of elements : 2355
Stream size : 66.4 KiB (0%)
Language : Indonesian
Default : No
Forced : No

Text #10
ID : 12
Format : UTF-8
Codec ID : S_TEXT/UTF8
Codec ID/Info : UTF-8 Plain Text
Duration : 1 h 40 min
Bit rate : 81 b/s
Frame rate : 0.364 FPS
Count of elements : 2195
Stream size : 59.9 KiB (0%)
Language : Italian
Default : No
Forced : No

Text #11
ID : 13
Format : UTF-8
Codec ID : S_TEXT/UTF8
Codec ID/Info : UTF-8 Plain Text
Duration : 1 h 40 min
Bit rate : 106 b/s
Frame rate : 0.444 FPS
Count of elements : 2678
Stream size : 78.3 KiB (0%)
Language : Japanese
Default : No
Forced : No

Text #12
ID : 14
Format : UTF-8
Codec ID : S_TEXT/UTF8
Codec ID/Info : UTF-8 Plain Text
Duration : 1 h 40 min
Bit rate : 93 b/s
Frame rate : 0.390 FPS
Count of elements : 2351
Stream size : 69.2 KiB (0%)
Language : Malay
Default : No
Forced : No

Text #13
ID : 15
Format : UTF-8
Codec ID : S_TEXT/UTF8
Codec ID/Info : UTF-8 Plain Text
Duration : 1 h 40 min
Bit rate : 88 b/s
Frame rate : 0.379 FPS
Count of elements : 2287
Stream size : 65.4 KiB (0%)
Title : Brazilian
Language : Portuguese
Default : No
Forced : No

Text #14
ID : 16
Format : UTF-8
Codec ID : S_TEXT/UTF8
Codec ID/Info : UTF-8 Plain Text
Duration : 1 h 40 min
Bit rate : 235 b/s
Frame rate : 0.392 FPS
Count of elements : 2367
Stream size : 173 KiB (0%)
Language : Thai
Default : No
Forced : No

Text #15
ID : 17
Format : UTF-8
Codec ID : S_TEXT/UTF8
Codec ID/Info : UTF-8 Plain Text
Duration : 1 h 40 min
Bit rate : 86 b/s
Frame rate : 0.391 FPS
Count of elements : 2358
Stream size : 63.5 KiB (0%)
Title : Chinese Traditional
Language : Chinese
Default : No
Forced : No

Text #16
ID : 18
Format : UTF-8
Codec ID : S_TEXT/UTF8
Codec ID/Info : UTF-8 Plain Text
Duration : 1 h 40 min
Bit rate : 86 b/s
Frame rate : 0.391 FPS
Count of elements : 2358
Stream size : 63.6 KiB (0%)
Title : Chinese Simplified
Language : Chinese
Default : Yes
Forced : No


点击图片可查看大图

软字幕无法在截图上展现,HDR版本/杜比视界版本截图会出现颜色异常,请使用支持的设备播放!



1 个附件 售价 大小 下载 时间

Apartment404.S01.2024.1080p.AMZN.WEB-DL.H264.DDP2.0-ZeroTV[1LOU.ME].torrent 0 金币 38.33K 686 次 1月前

#1楼
发帖时间:2024-03-02 09:45:00   |   回复数:0
游客组