BILL36
隐世仙人♂

[2024] [大陆] [剧情] [WEB-4K] 飞驰人生热爱篇[第08-09集][国语配音/中文字幕].Pegasus.S01.2024.2160p.WEB-DL.H265.AAC-ZeroTV 2.99GB

-->

完整标题:飞驰人生热爱篇[第08-09集][国语配音/中文字幕].Pegasus.S01.2024.2160p.WEB-DL.H265.AAC-ZeroTV 2.99GB



◎标  题 飞驰人生热爱篇
◎译  名 飞驰人生(剧版)‎
◎年  代 2024
◎产  地 中国大陆
◎类  别 剧情 / 喜剧 / 动作
◎语  言 汉语普通话
◎IMDb链接 https://www.imdb.com/title/tt29045109/
◎豆瓣链接 https://movie.douban.com/subject/35929273/
◎导  演 十一月 Peng Wang
◎编  剧 许芃芃 Pengpeng Xu
      韩鹏 Peng Han
      海珊 Shan Hai
◎演  员 胡先煦 Xianxu Hu
      王彦霖 Yanlin Wang
      喻恩泰 Entai Yu
      阎鹤祥 Hexiang Yan
      曲哲明 Zheming Qu
      陈雨贤 Yuxian Chen
      赵浩闳 Haohong Zhao
      李嘉灏 Jiahao Li
      周子歆 Zixin Zhou
      阚清子 Qingzi Kan
      王影璐 Yinglu Wang
      孙天宇 Tianyu Sun
      周铁 Tie Zhou
      于小磊 Xiaolei Yu
      秦霄贤 Xiaoxian Qin
      张晓谦 Xiaoqian Zhang
      高华阳 Zack Gao
      黄婷婷 Tingting Huang
      罗泽楷 Zekai Luo
      柳小海 Xiaohai Liu

◎简  介
    剧集作为电影《飞驰人生》第一部的衍生网剧,讲述了飞出赛道后身受重伤的张驰(王彦霖 饰)意外来到21岁的林臻东(胡先煦 饰)身上,由此想尽一切办法阻止自己重蹈覆辙的故事。一路上他们闹了多少笑话?队员间收获了几许温情?同时赛场上又有哪些挑战在等待着他们?

部分资源为软字幕,移动端推荐播放器:MxPlayer,nPlayer,infuse ,其他播放器请自行尝试。

部分资源为软字幕,电脑端推荐播放器:PotPlayer,完美解码,KMPLAYER,其他播放器请自行尝试。

##### MediaInfo ######
General
Complete name : 飞驰人生热爱篇.Pegasus.S01E08.2024.2160p.WEB-DL.H265.AAC-ZeroTV.mp4
Duration : 46 min 21 s
Overall bit rate mode : Variable
Overall bit rate : 5 316 kb/s

Video
ID : 1
Format : HEVC
Format/Info : High Efficiency Video Coding
Format profile : Main 10@L5@Main
Codec ID : hev1
Codec ID/Info : High Efficiency Video Coding
Duration : 46 min 21 s
Bit rate : 5 116 kb/s
Width : 3 840 pixels
Height : 2 160 pixels
Display aspect ratio : 16:9
Frame rate mode : Constant
Frame rate : 25.000 FPS
Color space : YUV
Chroma subsampling : 4:2:0
Bit depth : 10 bits
Bits/(Pixel*Frame) : 0.025
Stream size : 1.66 GiB (96%)
Color range : Limited
Color primaries : BT.709
Transfer characteristics : BT.709
Matrix coefficients : BT.709
Codec configuration box : hvcC

Audio
ID : 2
Format : AAC LC
Format/Info : Advanced Audio Codec Low Complexity
Codec ID : mp4a-40-2
Duration : 46 min 21 s
Bit rate mode : Variable
Bit rate : 192 kb/s
Maximum bit rate : 195 kb/s
Channel(s) : 2 channels
Channel layout : L R
Sampling rate : 44.1 kHz
Frame rate : 43.066 FPS (1024 SPF)
Compression mode : Lossy
Stream size : 63.7 MiB (4%)
Default : Yes
Alternate group : 1


点击图片可查看大图

软字幕无法在截图上展现,HDR版本/杜比视界版本截图会出现颜色异常,请使用支持的设备播放!



1 个附件 售价 大小 下载 时间

Pegasus.S01.2024.2160p.WEB-DL.H265.AAC-ZeroTV[1LOU.ME].torrent 0 金币 10.55K 322 次 1月前

#1楼
发帖时间:2024-03-01 23:11:19   |   回复数:0
游客组