BILL36
隐世仙人♂

[2024] [大陆] [真人秀] [WEB-1080P] 种地吧2[第03集][国语配音/中文字幕].Believe.in.the.Land.S02.2024.1080p.WEB-DL.H264.AAC-BlackTV

-->

完整标题:种地吧2[第03集][国语配音/中文字幕].Believe.in.the.Land.S02.2024.1080p.WEB-DL.H264.AAC-BlackTV 1.96GB



◎标  题 种地吧2
◎译  名 种地吧 第二季
◎年  代 2024
◎产  地 中国大陆
◎类  别 真人秀
◎语  言 汉语普通话
◎IMDb链接 https://www.imdb.com/title//
◎豆瓣链接 https://movie.douban.com/subject/36571420/
◎演  员 蒋敦豪 Dunhao Jiang
      鹭卓 Zhuo Lu
      李耕耘 Gengyun Li
      李昊 Hao Li
      赵一博 Yibo Zhao
      卓沅 Yuan Zhuo
      赵小童 Xiaotong Zhao
      何浩楠 Haonan He
      陈少熙 Shaoxi Chen
      王一珩 Yiheng Wang

◎简  介
    做大做强,重回田园,继续投身新农业,再续新农人生。

部分资源为软字幕,移动端推荐播放器:MxPlayer,nPlayer,infuse ,其他播放器请自行尝试。

部分资源为软字幕,电脑端推荐播放器:PotPlayer,完美解码,KMPLAYER,其他播放器请自行尝试。

##### MediaInfo ######
General
Unique ID : 254767500074098565496241923931744353102 (0xBFAA6F8BAB685FFD0101C53F1929BB4E)
Complete name : Believe.in.the.Land.S02E03.20240301.1080p.WEB-DL.H264.AAC-BlackTV.mkv
Duration : 1 h 53 min
Overall bit rate : 2 468 kb/s

Video
ID : 1
Format : AVC
Format/Info : Advanced Video Codec
Format profile : High@L4
Format settings : CABAC / 3 Ref Frames
Format settings, CABAC : Yes
Format settings, Reference frames : 3 frames
Codec ID : V_MPEG4/ISO/AVC
Duration : 1 h 53 min
Bit rate : 2 276 kb/s
Width : 1 920 pixels
Height : 1 080 pixels
Display aspect ratio : 16:9
Frame rate mode : Constant
Frame rate : 25.000 FPS
Color space : YUV
Chroma subsampling : 4:2:0
Bit depth : 8 bits
Scan type : Progressive
Bits/(Pixel*Frame) : 0.044
Stream size : 1.81 GiB (92%)
Language : Chinese
Default : Yes
Forced : No
Color range : Limited
Color primaries : BT.709
Transfer characteristics : BT.709
Matrix coefficients : BT.709
VENDOR_ID : [0][0][0][0]

Audio
ID : 2
Format : AAC LC
Format/Info : Advanced Audio Codec Low Complexity
Codec ID : A_AAC-2
Duration : 1 h 53 min
Bit rate : 192 kb/s
Channel(s) : 2 channels
Channel layout : L R
Sampling rate : 44.1 kHz
Frame rate : 43.066 FPS (1024 SPF)
Compression mode : Lossy
Stream size : 155 MiB (8%)
Title : Mandarin [AAC2.0]
Language : Chinese
Default : No
Forced : No
VENDOR_ID : [0][0][0][0]

Menu
00:24:47.000 : zh:何浩楠浙商头脑觉醒
00:27:58.000 : zh:卓沅清晰讲解草莓种植方案
00:32:39.000 : zh:卓沅傻傻分不清量词
00:33:35.000 : zh:李昊画饼现场


点击图片可查看大图

软字幕无法在截图上展现,HDR版本/杜比视界版本截图会出现颜色异常,请使用支持的设备播放!



1 个附件 售价 大小 下载 时间

Believe.in.the.Land.S02.2024.1080p.WEB-DL.H264.AAC-BlackTV[1LOU.ME].torrent 0 金币 7.86K 357 次 1月前

#1楼
发帖时间:2024-03-01 23:10:12   |   回复数:0
游客组