BILL36
隐世仙人♂

[2023] [大陆] [动画] [WEB-4K] 百炼成神2[第14集][国语配音/中文字幕].Apotheosis.S02.2023.2160p.WEB-DL.H265.AAC-ZeroTV 1.27GB

-->

完整标题:百炼成神2[第14集][国语配音/中文字幕].Apotheosis.S02.2023.2160p.WEB-DL.H265.AAC-ZeroTV 1.27GB



◎标  题 百炼成神2
◎译  名 Apotheosis
◎年  代 2023
◎产  地 中国大陆
◎类  别 动画
◎语  言 汉语普通话
◎IMDb链接 https://www.imdb.com/title//
◎豆瓣链接 https://movie.douban.com/subject/36563588/
◎演  员 张沛 Pei Zhang
      张若瑜 Zhang Ruoyu
      陈彦亦 Yanyi Chen
      李蝉妃 Chanfei Li
      张啸霏
      刘飞 Fei Liu
      贾志超 Zhichao Jia
      宋国庆
      黄进泽 Jinze Huang
      唐昊

◎简  介
    家族败落,至亲受难,罗征从云端跌落成为一名卑微家奴,在各族抗争不断、神秘力量统治的世界,不甘堕落的罗征偶得神秘功法,炼自身为器,一道抗争的序幕,就此轰然拉开。

部分资源为软字幕,移动端推荐播放器:MxPlayer,nPlayer,infuse ,其他播放器请自行尝试。

部分资源为软字幕,电脑端推荐播放器:PotPlayer,完美解码,KMPLAYER,其他播放器请自行尝试。

##### MediaInfo ######
General
Complete name : 百炼成神.Apotheosis.S02E14.2023.2160p.WEB-DL.H265.AAC-ZeroTV.mp4
Duration : 21 min 0 s
Overall bit rate mode : Variable
Overall bit rate : 8 619 kb/s

Video
ID : 1
Format : HEVC
Format/Info : High Efficiency Video Coding
Format profile : Main 10@L5@Main
Codec ID : hev1
Codec ID/Info : High Efficiency Video Coding
Duration : 21 min 0 s
Bit rate : 8 420 kb/s
Width : 3 840 pixels
Height : 2 160 pixels
Display aspect ratio : 16:9
Frame rate mode : Constant
Frame rate : 25.000 FPS
Color space : YUV
Chroma subsampling : 4:2:0
Bit depth : 10 bits
Bits/(Pixel*Frame) : 0.041
Stream size : 1.24 GiB (98%)
Color range : Limited
Color primaries : BT.709
Transfer characteristics : BT.709
Matrix coefficients : BT.709
Codec configuration box : hvcC

Audio
ID : 2
Format : AAC LC
Format/Info : Advanced Audio Codec Low Complexity
Codec ID : mp4a-40-2
Duration : 21 min 0 s
Bit rate mode : Variable
Bit rate : 192 kb/s
Maximum bit rate : 195 kb/s
Channel(s) : 2 channels
Channel layout : L R
Sampling rate : 44.1 kHz
Frame rate : 43.066 FPS (1024 SPF)
Compression mode : Lossy
Stream size : 28.9 MiB (2%)
Default : Yes
Alternate group : 1


点击图片可查看大图

软字幕无法在截图上展现,HDR版本/杜比视界版本截图会出现颜色异常,请使用支持的设备播放!



1 个附件 售价 大小 下载 时间

Apotheosis.S02.2023.2160p.WEB-DL.H265.AAC-ZeroTV[1LOU.ME].torrent 0 金币 6.11K 1302 次 1月前

#1楼
发帖时间:2024-03-01 23:08:49   |   回复数:0
游客组