BILL36
隐世仙人♂

[2024] [大陆] [动作] [WEB-1080P] 猎冰[第14集][国语音轨/简繁英字幕].The.Hunter.S01.2024.1080p.WeTV.WEB-DL.H264.AAC-BlackTV 0.41

-->

完整标题:猎冰[第14集][国语音轨/简繁英字幕].The.Hunter.S01.2024.1080p.WeTV.WEB-DL.H264.AAC-BlackTV 0.41GB



◎标  题 猎冰
◎年  代 2024
◎产  地 中国大陆
◎类  别 动作 / 悬疑 / 犯罪
◎语  言 汉语普通话
◎IMDb链接 https://www.imdb.com/title//
◎豆瓣链接 https://movie.douban.com/subject/35890350/
◎导  演 高群书 Qunshu Gao
      万鹏 Peng Wan
◎编  剧 高寒 Han Gao
◎演  员 张颂文 Songwen Zhang
      姚安娜 Annabel Yao
      韩庚 Han geng
      包文婧 Wenjing Bao
      苏鑫 Xin Su
      彭禺厶 Yusi Peng
      朱宏嘉 Hongjia Zhu
      周云鹏 Yunpeng Zhou
      赵龙豪 Longhao Zhao
      斌子 Zi Bin
      徐励 Li Xu
      陈天明 Tianming Chen
      魏瑾 Jin Wei
      何熙维 Xiwei He
      丁一一 Yiyi Ding
      苗博 Miaobo
      陈厦平 Chen Xiaping
      周思羽 Siyu Zhou
      王浩丞 Haocheng Wang
      包贝尔 Bei'er Bao
      赵雅莉 Yali Zhao
      薛皓文 Haowen Xue

◎简  介
    平静的沿海小城三平市,缉毒大队在一次行动中意外缴获一批新型冰毒,其规模和纯度都极为罕见,三平公安立即展开调查。部队转业女警赵友男(姚安娜 饰)凭着敏锐的嗅觉和洞察力,将目标锁定在了做化工买卖的黄宗伟(张颂文 饰)身上。诡计多端的黄宗伟让初出茅庐的赵友男燃起了斗志,她死盯黄宗伟,不管对方藏在何处,不管假像如何高级,她都能挖到线索,发现真相,义无反顾奔赴抓捕。以赵友男为代表的缉毒警察坚持不懈追捕黄宗伟为首的贩毒集团,最终成功剿灭制毒团伙的故事。

部分资源为软字幕,移动端推荐播放器:MxPlayer,nPlayer,infuse ,其他播放器请自行尝试。

部分资源为软字幕,电脑端推荐播放器:PotPlayer,完美解码,KMPLAYER,其他播放器请自行尝试。

##### MediaInfo ######
General
Unique ID : 173232560746976693424644532520971562246 (0x825360AAF42DC23A133443D87B726D06)
Complete name : The.Hunter.S01E14.2024.1080p.WeTV.WEB-DL.H264.AAC-BlackTV.mkv
Duration : 38 min 50 s
Overall bit rate : 1 519 kb/s

Video
ID : 1
Format : AVC
Format/Info : Advanced Video Codec
Format profile : High@L4
Format settings : CABAC / 4 Ref Frames
Format settings, CABAC : Yes
Format settings, Reference frames : 4 frames
Codec ID : V_MPEG4/ISO/AVC
Duration : 38 min 50 s
Bit rate : 1 423 kb/s
Width : 1 920 pixels
Height : 1 080 pixels
Display aspect ratio : 16:9
Frame rate mode : Constant
Frame rate : 25.000 FPS
Color space : YUV
Chroma subsampling : 4:2:0
Bit depth : 8 bits
Scan type : Progressive
Bits/(Pixel*Frame) : 0.027
Stream size : 395 MiB (94%)
Language : Chinese
Default : Yes
Forced : No
Color range : Limited
Color primaries : BT.709
Transfer characteristics : BT.709
Matrix coefficients : BT.709

Audio
ID : 2
Format : AAC LC
Format/Info : Advanced Audio Codec Low Complexity
Codec ID : A_AAC-2
Duration : 38 min 50 s
Bit rate : 93.4 kb/s
Channel(s) : 2 channels
Channel layout : L R
Sampling rate : 48.0 kHz
Frame rate : 46.875 FPS (1024 SPF)
Compression mode : Lossy
Delay relative to video : -42 ms
Stream size : 25.9 MiB (6%)
Title : Mandarin [AAC2.0]
Language : Chinese
Default : No
Forced : No

Text #1
ID : 3
Format : UTF-8
Codec ID : S_TEXT/UTF8
Codec ID/Info : UTF-8 Plain Text
Duration : 35 min 52 s
Bit rate : 48 b/s
Frame rate : 0.312 FPS
Count of elements : 672
Stream size : 12.9 KiB (0%)
Title : Chinese (Simplified)
Language : Chinese
Default : Yes
Forced : No

Text #2
ID : 4
Format : UTF-8
Codec ID : S_TEXT/UTF8
Codec ID/Info : UTF-8 Plain Text
Duration : 35 min 52 s
Bit rate : 48 b/s
Frame rate : 0.312 FPS
Count of elements : 672
Stream size : 12.9 KiB (0%)
Title : Chinese (Traditional)
Language : Chinese
Default : No
Forced : No

Text #3
ID : 5
Format : UTF-8
Codec ID : S_TEXT/UTF8
Codec ID/Info : UTF-8 Plain Text
Duration : 35 min 52 s
Bit rate : 59 b/s
Frame rate : 0.312 FPS
Count of elements : 672
Stream size : 15.8 KiB (0%)
Title : English
Language : English
Default : No
Forced : No


点击图片可查看大图

软字幕无法在截图上展现,HDR版本/杜比视界版本截图会出现颜色异常,请使用支持的设备播放!



1 个附件 售价 大小 下载 时间

The.Hunter.S01.2024.1080p.WeTV.WEB-DL.H264.AAC-BlackTV[1LOU.ME].torrent 0 金币 3.96K 3360 次 1月前

#1楼
发帖时间:2024-03-01 23:07:25   |   回复数:0
游客组