BILL36
隐世仙人♂

[2024] [大陆] [剧情] [WEB-1080P] 永安梦[第07-08集][国语音轨/简繁英字幕].Yong.An.Dream.S01.2024.1080p.WeTV.WEB-DL.H264.AAC-Black

-->

完整标题:永安梦[第07-08集][国语音轨/简繁英字幕].Yong.An.Dream.S01.2024.1080p.WeTV.WEB-DL.H264.AAC-BlackTV 1.05GB



◎标  题 永安梦
◎译  名 长安第一美人
◎年  代 2024
◎产  地 中国大陆
◎类  别 剧情 / 爱情 / 古装
◎语  言 汉语普通话
◎IMDb链接 https://www.imdb.com/title/tt31436616/
◎豆瓣链接 https://movie.douban.com/subject/36067148/
◎导  演 黄斌 Bin Huang
      邓伟恩 Wai Yan Tang
      陈强 Qiang Chen
◎演  员 欧阳娜娜 Nana Ouyang
      徐正溪 Jeremy Xu
      孙坚 Jian Sun
      夏楠 Nan Xia
      刘海宽 Haikuan Liu
      许榕真 Rongzhen Xu
      郑国霖 Guolin Zheng

◎简  介
    该剧改编自发达的泪腺的小说《长安第一美人》。   国都永安,因城西渠的垮塌,负责工事的都官尚书沈文祁一夕获罪,身陷牢狱。覆巢之下无完卵,沈家的两个女儿沈姌(夏楠 饰)、沈甄(欧阳娜娜 饰)也先后落入泥沼。尤其是小女沈甄一向养在深闺,不谙世事,此时流落街头,难以自保。此时正负责调查此案的廷尉陆时砚(徐正溪 饰),也因为频 频梦见自己与神秘女子的种种牵绊而陷入了困惑。经过求证,梦中出现的神秘女子正是罪臣之女沈甄。陆时砚一步步走近她,也一步步走向自己未知的命运。围绕城西渠一案,两人经历生死、交托信任,彼此情根深种。而陆时砚亦不负所托,在沈甄的帮助下,查明案情真相。然而真正的幕后黑手却向两人默默逼近。

部分资源为软字幕,移动端推荐播放器:MxPlayer,nPlayer,infuse ,其他播放器请自行尝试。

部分资源为软字幕,电脑端推荐播放器:PotPlayer,完美解码,KMPLAYER,其他播放器请自行尝试。

##### MediaInfo ######
General
Unique ID : 48034563892060955248136582502671951383 (0x24231ED8DC5086AD94EB7CA8860BA617)
Complete name : Yong.An.Dream.S01E07.2024.1080p.WeTV.WEB-DL.H264.AAC-BlackTV.mkv
Duration : 49 min 1 s
Overall bit rate : 1 483 kb/s

Video
ID : 1
Format : AVC
Format/Info : Advanced Video Codec
Format profile : High@L4
Format settings : CABAC / 4 Ref Frames
Format settings, CABAC : Yes
Format settings, Reference frames : 4 frames
Codec ID : V_MPEG4/ISO/AVC
Duration : 49 min 1 s
Bit rate : 1 387 kb/s
Width : 1 920 pixels
Height : 1 080 pixels
Display aspect ratio : 16:9
Frame rate mode : Constant
Frame rate : 25.000 FPS
Color space : YUV
Chroma subsampling : 4:2:0
Bit depth : 8 bits
Scan type : Progressive
Bits/(Pixel*Frame) : 0.027
Stream size : 486 MiB (94%)
Language : Chinese
Default : Yes
Forced : No
Color range : Limited
Color primaries : BT.709
Matrix coefficients : BT.709

Audio
ID : 2
Format : AAC LC
Format/Info : Advanced Audio Codec Low Complexity
Codec ID : A_AAC-2
Duration : 49 min 1 s
Bit rate : 93.4 kb/s
Channel(s) : 2 channels
Channel layout : L R
Sampling rate : 48.0 kHz
Frame rate : 46.875 FPS (1024 SPF)
Compression mode : Lossy
Delay relative to video : -42 ms
Stream size : 32.7 MiB (6%)
Title : Mandarin [AAC2.0]
Language : Chinese
Default : No
Forced : No

Text #1
ID : 3
Format : UTF-8
Codec ID : S_TEXT/UTF8
Codec ID/Info : UTF-8 Plain Text
Duration : 44 min 5 s
Bit rate : 48 b/s
Frame rate : 0.362 FPS
Count of elements : 958
Stream size : 15.5 KiB (0%)
Title : Chinese (Simplified)
Language : Chinese
Default : Yes
Forced : No

Text #2
ID : 4
Format : UTF-8
Codec ID : S_TEXT/UTF8
Codec ID/Info : UTF-8 Plain Text
Duration : 44 min 5 s
Bit rate : 48 b/s
Frame rate : 0.362 FPS
Count of elements : 958
Stream size : 15.5 KiB (0%)
Title : Chinese (Traditional)
Language : Chinese
Default : No
Forced : No

Text #3
ID : 5
Format : UTF-8
Codec ID : S_TEXT/UTF8
Codec ID/Info : UTF-8 Plain Text
Duration : 48 min 50 s
Bit rate : 65 b/s
Frame rate : 0.333 FPS
Count of elements : 976
Stream size : 23.5 KiB (0%)
Title : English
Language : English
Default : No
Forced : No


点击图片可查看大图

软字幕无法在截图上展现,HDR版本/杜比视界版本截图会出现颜色异常,请使用支持的设备播放!



1 个附件 售价 大小 下载 时间

Yong.An.Dream.S01.2024.1080p.WeTV.WEB-DL.H264.AAC-BlackTV[1LOU.ME].torrent 0 金币 5.67K 266 次 1月前

#1楼
发帖时间:2024-03-01 23:06:07   |   回复数:0
游客组