BILL36
隐世仙人♂

[2024] [大陆] [喜剧] [WEB-4K] 大理寺少卿游[杜比视界版本][第21-22集][国语配音/中文字幕].2024.2160p.WEB-DL.H265.DV.DDP5.1.Atmos-BlackT

-->

完整标题:大理寺少卿游[杜比视界版本][第21-22集][国语配音/中文字幕].2024.2160p.WEB-DL.H265.DV.DDP5.1.Atmos-BlackTV 10.94GB



◎标  题 大理寺少卿游
◎译  名 大理寺日志 / White Cat Legend
◎年  代 2024
◎产  地 中国大陆
◎类  别 喜剧 / 悬疑 / 古装
◎语  言 汉语普通话
◎IMDb链接 https://www.imdb.com/title/tt28467848/
◎豆瓣链接 https://movie.douban.com/subject/35040041/
◎导  演 王威 Wei Wang
◎编  剧 魏思远 Siyuan Wei
      黑玉 Heiyu
      姜来 Lai Jiang
      RC R·C
◎演  员 丁禹兮 Yuxi Ding
      周奇 Qi Zhou
      魏哲鸣 Zheming Wei
      丁嘉文 Jiawen Ding
      张奕聪 Yicong Zhang
      冯满 Man Feng
      娃尔 Er Wa
      任敏 Min Ren
      孙美林 Meilin Sun
      杨亘 Gen Yang
      何奉天 Fengtian He
      汪汐潮 Xichao Wang
      金梦翼 Mengyi Jin

◎简  介
    受女皇赏识的白猫李饼被封为大理寺少卿,大理寺众人在李饼的带领下,拨开神都层层迷雾,在相互扶持中坚守内心正义的故事。   该剧为高分人气动漫《大理寺日志》首部漫改真人剧。

部分资源为软字幕,移动端推荐播放器:MxPlayer,nPlayer,infuse ,其他播放器请自行尝试。

部分资源为软字幕,电脑端推荐播放器:PotPlayer,完美解码,KMPLAYER,其他播放器请自行尝试。

##### MediaInfo ######
General
Unique ID : 40270521864527135925582876847205325424 (0x1E4BD2054EF1A6846C8551696B2D1A70)
Complete name : White.Cat.Legend.S01E21.2024.2160p.WEB-DL.H265.DV.DDP5.1.Atmos-BlackTV.mkv
Duration : 44 min 43 s
Overall bit rate : 17.7 Mb/s

Video
ID : 1
Format : HEVC
Format/Info : High Efficiency Video Coding
Format profile : Main 10@L5@High
HDR format : Dolby Vision, Version 1.0, dvhe.05.07, BL+RPU
Codec ID : V_MPEGH/ISO/HEVC
Duration : 44 min 43 s
Bit rate : 17.0 Mb/s
Width : 3 840 pixels
Height : 2 160 pixels
Display aspect ratio : 16:9
Frame rate mode : Constant
Frame rate : 25.000 FPS
Color space : YUV
Chroma subsampling : 4:2:0
Bit depth : 10 bits
Bits/(Pixel*Frame) : 0.082
Stream size : 5.31 GiB (96%)
Language : Chinese
Default : Yes
Forced : No
Color range : Full

Audio #1
ID : 2
Format : E-AC-3 JOC
Format/Info : Enhanced AC-3 with Joint Object Coding
Commercial name : Dolby Digital Plus with Dolby Atmos
Codec ID : A_EAC3
Duration : 44 min 42 s
Bit rate mode : Constant
Bit rate : 448 kb/s
Channel(s) : 6 channels
Channel layout : L R C LFE Ls Rs
Sampling rate : 48.0 kHz
Frame rate : 31.250 FPS (1536 SPF)
Compression mode : Lossy
Stream size : 143 MiB (3%)
Title : Mandarin [DDP5.1.Atmos]
Language : Chinese
Service kind : Complete Main
Default : Yes
Forced : No
Complexity index : 16
Number of dynamic objects : 15
Bed channel count : 1 channel
Bed channel configuration : LFE

Audio #2
ID : 3
Format : AAC LC
Format/Info : Advanced Audio Codec Low Complexity
Codec ID : A_AAC-2
Duration : 44 min 43 s
Bit rate : 256 kb/s
Channel(s) : 2 channels
Channel layout : L R
Sampling rate : 44.1 kHz
Frame rate : 43.066 FPS (1024 SPF)
Compression mode : Lossy
Stream size : 81.9 MiB (1%)
Title : Mandarin [AAC2.0]
Language : Chinese
Default : No
Forced : No


点击图片可查看大图

软字幕无法在截图上展现,HDR版本/杜比视界版本截图会出现颜色异常,请使用支持的设备播放!



1 个附件 售价 大小 下载 时间

2024.2160p.WEB-DL.H265.DV.DDP5.1.Atmos-BlackTV[1LOU.ME].torrent 0 金币 30.43K 182 次 1月前

#1楼
发帖时间:2024-03-01 22:48:29   |   回复数:0
游客组