BILL36
隐世仙人♂

[2024] [大陆] [喜剧] [WEB-1080P] 大理寺少卿游[第21-22集][国语音轨/简繁英字幕].White.Cat.Legend.S01.2024.1080p.IQ.WEB-DL.H264.AAC-B

-->

完整标题:大理寺少卿游[第21-22集][国语音轨/简繁英字幕].White.Cat.Legend.S01.2024.1080p.IQ.WEB-DL.H264.AAC-BlackTV 1.33GB



◎标  题 大理寺少卿游
◎译  名 大理寺日志 / White Cat Legend
◎年  代 2024
◎产  地 中国大陆
◎类  别 喜剧 / 悬疑 / 古装
◎语  言 汉语普通话
◎IMDb链接 https://www.imdb.com/title/tt28467848/
◎豆瓣链接 https://movie.douban.com/subject/35040041/
◎导  演 王威 Wei Wang
◎编  剧 魏思远 Siyuan Wei
      黑玉 Heiyu
      姜来 Lai Jiang
      RC R·C
◎演  员 丁禹兮 Yuxi Ding
      周奇 Qi Zhou
      魏哲鸣 Zheming Wei
      丁嘉文 Jiawen Ding
      张奕聪 Yicong Zhang
      冯满 Man Feng
      娃尔 Er Wa
      任敏 Min Ren
      孙美林 Meilin Sun
      杨亘 Gen Yang
      何奉天 Fengtian He
      汪汐潮 Xichao Wang
      金梦翼 Mengyi Jin

◎简  介
    受女皇赏识的白猫李饼被封为大理寺少卿,大理寺众人在李饼的带领下,拨开神都层层迷雾,在相互扶持中坚守内心正义的故事。   该剧为高分人气动漫《大理寺日志》首部漫改真人剧。

部分资源为软字幕,移动端推荐播放器:MxPlayer,nPlayer,infuse ,其他播放器请自行尝试。

部分资源为软字幕,电脑端推荐播放器:PotPlayer,完美解码,KMPLAYER,其他播放器请自行尝试。

##### MediaInfo ######
General
Unique ID : 29944489991984697203922172617460545262 (0x16871957B40DE89A3906829A233FF6EE)
Complete name : White.Cat.Legend.S01E21.2024.1080p.IQ.WEB-DL.H264.AAC-BlackTV.mkv
Duration : 44 min 42 s
Overall bit rate : 2 081 kb/s

Video
ID : 1
Format : AVC
Format/Info : Advanced Video Codec
Format profile : High@L4
Format settings : CABAC / 3 Ref Frames
Format settings, CABAC : Yes
Format settings, Reference frames : 3 frames
Codec ID : V_MPEG4/ISO/AVC
Duration : 44 min 42 s
Bit rate : 1 887 kb/s
Width : 1 920 pixels
Height : 1 080 pixels
Display aspect ratio : 16:9
Frame rate mode : Constant
Frame rate : 24.973 FPS
Original frame rate : 25.000 FPS
Color space : YUV
Chroma subsampling : 4:2:0
Bit depth : 8 bits
Scan type : Progressive
Bits/(Pixel*Frame) : 0.036
Stream size : 604 MiB (91%)
Language : Chinese
Default : Yes
Forced : No
Color range : Limited
Color primaries : BT.709
Transfer characteristics : BT.709
Matrix coefficients : BT.709

Audio
ID : 2
Format : AAC LC
Format/Info : Advanced Audio Codec Low Complexity
Codec ID : A_AAC-2
Duration : 44 min 42 s
Bit rate : 192 kb/s
Channel(s) : 2 channels
Channel layout : L R
Sampling rate : 44.1 kHz
Frame rate : 43.066 FPS (1024 SPF)
Compression mode : Lossy
Stream size : 61.4 MiB (9%)
Title : Mandarin [AAC2.0]
Language : Chinese
Default : No
Forced : No

Text #1
ID : 3
Format : UTF-8
Codec ID : S_TEXT/UTF8
Codec ID/Info : UTF-8 Plain Text
Duration : 40 min 43 s
Bit rate : 42 b/s
Frame rate : 0.326 FPS
Count of elements : 796
Stream size : 12.6 KiB (0%)
Title : Simplified Chinese
Language : Chinese
Default : Yes
Forced : No

Text #2
ID : 4
Format : UTF-8
Codec ID : S_TEXT/UTF8
Codec ID/Info : UTF-8 Plain Text
Duration : 40 min 43 s
Bit rate : 42 b/s
Frame rate : 0.326 FPS
Count of elements : 796
Stream size : 12.6 KiB (0%)
Title : Traditional Chinese
Language : Chinese
Default : No
Forced : No

Text #3
ID : 5
Format : UTF-8
Codec ID : S_TEXT/UTF8
Codec ID/Info : UTF-8 Plain Text
Duration : 42 min 38 s
Bit rate : 53 b/s
Frame rate : 0.320 FPS
Count of elements : 820
Stream size : 16.7 KiB (0%)
Title : English
Language : English
Default : No
Forced : No


点击图片可查看大图

软字幕无法在截图上展现,HDR版本/杜比视界版本截图会出现颜色异常,请使用支持的设备播放!



1 个附件 售价 大小 下载 时间

White.Cat.Legend.S01.2024.1080p.IQ.WEB-DL.H264.AAC-BlackTV[1LOU.ME].torrent 0 金币 6.38K 168 次 1月前

#1楼
发帖时间:2024-03-01 22:42:33   |   回复数:0
游客组