BILL36
隐世仙人♂

[2024] [大陆] [喜剧] [WEB-4K] 大王别慌张[全14集][国语配音/中文字幕].The.Great.Nobody.S01.2024.2160p.WEB-DL.H265.DDP5.1-BlackT

-->

完整标题:大王别慌张[全14集][国语配音/中文字幕].The.Great.Nobody.S01.2024.2160p.WEB-DL.H265.DDP5.1-BlackTV 8.42GB



◎标  题 大王别慌张
◎译  名 一年一度喜乐会之《大王别慌张》
◎年  代 2024
◎产  地 中国大陆
◎类  别 喜剧
◎语  言 汉语普通话
◎IMDb链接 https://www.imdb.com/title//
◎豆瓣链接 https://movie.douban.com/subject/36665465/
◎导  演 金哲勇 Zheyong Jin
◎编  剧 金哲勇 Zheyong Jin
      张帅 Shuai Zhang
◎演  员 土豆 Hongze Guo
      吕严 Yan Lü
      马旭东 Xudong Ma
      王天放 Tianfang Wang
      张祐维 Youwei Zhang
      叶浏 Liu Ye
      蒋诗萌 Shimeng Jiang
      闫佩伦 Peilun Yan
      唐晓天 Xiaotian Tang

◎简  介
    在正式获得升仙资格前,熊猫玲玲被派往花脖子山做卧底,干扰这个妖怪山寨吃唐僧肉的计划。鸡血军师鼹师配合玲玲竟然阴差阳错地直接把妖寨做大做强,发展成了知名旅游风景区!孙悟空逼近的脚步,不受控的局面,事情渐渐朝着意想不到的方向发展……

部分资源为软字幕,移动端推荐播放器:MxPlayer,nPlayer,infuse ,其他播放器请自行尝试。

部分资源为软字幕,电脑端推荐播放器:PotPlayer,完美解码,KMPLAYER,其他播放器请自行尝试。

##### MediaInfo ######
General
Unique ID : 279613389195252328984323597818439607665 (0xD25B9474FFECF393C01CD535738F2571)
Complete name : The.Great.Nobody.S01E01.2024.2160p.WEB-DL.H265.DDP5.1-BlackTV.mkv
Duration : 20 min 21 s
Overall bit rate : 4 805 kb/s

Video
ID : 1
Format : HEVC
Format/Info : High Efficiency Video Coding
Format profile : Main@L5@Main
Codec ID : V_MPEGH/ISO/HEVC
Duration : 20 min 21 s
Bit rate : 4 355 kb/s
Width : 3 840 pixels
Height : 1 920 pixels
Display aspect ratio : 2.000
Frame rate mode : Constant
Frame rate : 25.000 FPS
Color space : YUV
Chroma subsampling : 4:2:0
Bit depth : 8 bits
Bits/(Pixel*Frame) : 0.024
Stream size : 634 MiB (91%)
Language : Chinese
Default : Yes
Forced : No
Color range : Limited

Audio #1
ID : 2
Format : E-AC-3
Format/Info : Enhanced AC-3
Commercial name : Dolby Digital Plus
Codec ID : A_EAC3
Duration : 20 min 21 s
Bit rate mode : Constant
Bit rate : 256 kb/s
Channel(s) : 6 channels
Channel layout : L R C LFE Ls Rs
Sampling rate : 48.0 kHz
Frame rate : 31.250 FPS (1536 SPF)
Compression mode : Lossy
Delay relative to video : -160 ms
Stream size : 37.3 MiB (5%)
Title : Mandarin [DDP5.1]
Language : Chinese
Service kind : Complete Main
Default : Yes
Forced : No

Audio #2
ID : 3
Format : AAC LC
Format/Info : Advanced Audio Codec Low Complexity
Codec ID : A_AAC-2
Duration : 20 min 21 s
Bit rate : 192 kb/s
Channel(s) : 2 channels
Channel layout : L R
Sampling rate : 44.1 kHz
Frame rate : 43.066 FPS (1024 SPF)
Compression mode : Lossy
Delay relative to video : -160 ms
Stream size : 28.0 MiB (4%)
Title : Mandarin [AAC2.0]
Language : Chinese
Default : No
Forced : No


点击图片可查看大图

软字幕无法在截图上展现,HDR版本/杜比视界版本截图会出现颜色异常,请使用支持的设备播放!



1 个附件 售价 大小 下载 时间

The.Great.Nobody.S01.2024.2160p.WEB-DL.H265.DDP5.1-BlackTV[1LOU.ME].torrent 0 金币 25.25K 2415 次 1月前

#1楼
发帖时间:2024-03-01 22:41:10   |   回复数:0
游客组