BILL36
隐世仙人♂

[2023] [大陆] [动画] [WEB-4K] 大主宰年番[第38集][国语配音/中文字幕].The.Great.Ruler.S01.2023.2160p.WEB-DL.H265.AAC-ZeroTV 0.8

-->

完整标题:大主宰年番[第38集][国语配音/中文字幕].The.Great.Ruler.S01.2023.2160p.WEB-DL.H265.AAC-ZeroTV 0.88GB



◎标  题 大主宰年番
◎译  名 大主宰3D / The Great Ruler / The Grand Lord
◎年  代 2023
◎产  地 中国大陆
◎类  别 动画
◎语  言 汉语普通话
◎IMDb链接 https://www.imdb.com/title//
◎豆瓣链接 https://movie.douban.com/subject/35517453/
◎导  演 马建平 Jianping Ma
◎演  员 孙郎朗 Langlang Sun
      李诗萌 Shimeng Li
      江月 Yue Jiang
      贺文潇 Wenxiao He
      歪歪 Fuzheng Zhang
      柳真颜 Zhenyan Liu

◎简  介
    大千世界,北灵境出,踏灵路,伐罗天,剑斩诛邪永定乾坤,万道争锋吾为主率!   天蚕土豆内容监制,爱奇艺全网独播。

部分资源为软字幕,移动端推荐播放器:MxPlayer,nPlayer,infuse ,其他播放器请自行尝试。

部分资源为软字幕,电脑端推荐播放器:PotPlayer,完美解码,KMPLAYER,其他播放器请自行尝试。

##### MediaInfo ######
General
Complete name : 大主宰年番.The.Great.Ruler.S01E38.2023.2160p.WEB-DL.H265.AAC-ZeroTV.mp4
Duration : 19 min 28 s
Overall bit rate mode : Variable
Overall bit rate : 6 490 kb/s

Video
ID : 1
Format : HEVC
Format/Info : High Efficiency Video Coding
Format profile : Main@L5@Main
Codec ID : hev1
Codec ID/Info : High Efficiency Video Coding
Duration : 19 min 28 s
Bit rate : 6 296 kb/s
Width : 3 840 pixels
Height : 2 160 pixels
Display aspect ratio : 16:9
Frame rate mode : Constant
Frame rate : 25.000 FPS
Color space : YUV
Chroma subsampling : 4:2:0
Bit depth : 8 bits
Bits/(Pixel*Frame) : 0.030
Stream size : 877 MiB (97%)
Codec configuration box : hvcC

Audio
ID : 2
Format : AAC LC
Format/Info : Advanced Audio Codec Low Complexity
Codec ID : mp4a-40-2
Duration : 19 min 28 s
Bit rate mode : Variable
Bit rate : 188 kb/s
Maximum bit rate : 194 kb/s
Channel(s) : 2 channels
Channel layout : L R
Sampling rate : 44.1 kHz
Frame rate : 43.066 FPS (1024 SPF)
Compression mode : Lossy
Stream size : 26.1 MiB (3%)
Default : Yes
Alternate group : 1


点击图片可查看大图

软字幕无法在截图上展现,HDR版本/杜比视界版本截图会出现颜色异常,请使用支持的设备播放!



2 个附件 售价 大小 下载 时间

Detective.Chinatown.S02.2024.2160p.WEB-DL.H265.HDR.DDP5.1-BlackTV[1LOU.ME].torrent 0 金币 22.20K 532 次 1月前

The.Great.Ruler.S01.2023.2160p.WEB-DL.H265.AAC-ZeroTV[1LOU.ME].torrent 0 金币 5.17K 1001 次 1月前

#1楼
发帖时间:2024-03-01 22:33:38   |   回复数:0
游客组