BILL36
隐世仙人♂

[2024] [大陆] [悬疑] [WEB-4K] 唐人街探案2[60帧率版本][第04-05集][国语配音/中文字幕].2024.2160p.WEB-DL.H265.HDR.60fps.DDP5.1-Black

-->

完整标题:唐人街探案2[60帧率版本][第04-05集][国语配音/中文字幕].2024.2160p.WEB-DL.H265.HDR.60fps.DDP5.1-BlackTV 5.78GB



◎标  题 唐人街探案2
◎译  名 唐人街探案 第二季 / 唐人街探案网剧2 / 唐探2 / Detective Chinatown2
◎年  代 2024
◎产  地 中国大陆
◎类  别 悬疑 / 犯罪
◎语  言 汉语普通话
◎IMDb链接 https://www.imdb.com/title/tt22475188/
◎豆瓣链接 https://movie.douban.com/subject/35626867/
◎导  演 姚文逸 Wenyi Yao
      王天尉 Sky Wang
◎编  剧 陈思诚 Sicheng Chen
      回子捷 Zijie Hui
      全丽璇 Lixuan Quan
◎演  员 邱泽 Roy Chiu
      尚语贤 Yuxian Shang
      杨谨华 Chin Hua Yang
      钟镇涛 Kenny Bee
      俞灏明 Haoming Yu
      张艺上 Yishang Zhang
      熊黛林 Lynn Hung
      翁虹 Yvonne Yung
      邓恩熙 Enxi Deng
      荣梓杉 Zishan Rong
      王宝强 Baoqiang Wang
      刘昊然 Haoran Liu
      肖央 Yang Xiao
      张钧甯 Chun-Ning Chang
      托尼·贾 Tony Jaa
      杜德伟 Alex To
      吕颂贤 Jackie Lui Chung-yin
      连凯 Andrew Lin

◎简  介
    “唐探宇宙”原班人马惊喜回归,四个全新悬疑推理单元《天使的旋律》《恶魔的呼吸》《游乐园》《黄金城》。城市之间罪恶涌动,侦探林默(邱泽 饰)、Kiko(尚语贤 饰)谜案穿梭各显神通。2024,CRIMASTER侦探排行榜重新洗牌。

部分资源为软字幕,移动端推荐播放器:MxPlayer,nPlayer,infuse ,其他播放器请自行尝试。

部分资源为软字幕,电脑端推荐播放器:PotPlayer,完美解码,KMPLAYER,其他播放器请自行尝试。

##### MediaInfo ######
General
Unique ID : 305049144389825632937634614982526985827 (0xE57E5402E250F3E22F565C1A83AD6663)
Complete name : Detective.Chinatown.S02E04.2024.2160p.WEB-DL.H265.HDR.60fps.DDP5.1-BlackTV.mkv
Duration : 45 min 15 s
Overall bit rate : 9 193 kb/s

Video
ID : 1
Format : HEVC
Format/Info : High Efficiency Video Coding
Format profile : Main [email protected]@Main
HDR format : SMPTE ST 2086, HDR10 compatible
Codec ID : V_MPEGH/ISO/HEVC
Duration : 45 min 14 s
Bit rate : 8 741 kb/s
Width : 3 840 pixels
Height : 1 608 pixels
Display aspect ratio : 2.40:1
Frame rate mode : Constant
Frame rate : 60.000 FPS
Color space : YUV
Chroma subsampling : 4:2:0
Bit depth : 10 bits
Bits/(Pixel*Frame) : 0.024
Stream size : 2.76 GiB (95%)
Language : Chinese
Default : Yes
Forced : No
Color range : Limited
Color primaries : BT.2020
Transfer characteristics : PQ
Matrix coefficients : BT.2020 non-constant
Mastering display color primaries : R: x=0.708000 y=0.292000, G: x=0.170000 y=0.797000, B: x=0.130000 y=0.046000, White point: x=0.312700 y=0.329000
Mastering display luminance : min: 0.0001 cd/m2, max: 1000 cd/m2
Maximum Content Light Level : 695 cd/m2
Maximum Frame-Average Light Level : 26 cd/m2

Audio #1
ID : 2
Format : E-AC-3
Format/Info : Enhanced AC-3
Commercial name : Dolby Digital Plus
Codec ID : A_EAC3
Duration : 45 min 14 s
Bit rate mode : Constant
Bit rate : 256 kb/s
Channel(s) : 6 channels
Channel layout : L R C LFE Ls Rs
Sampling rate : 48.0 kHz
Frame rate : 31.250 FPS (1536 SPF)
Compression mode : Lossy
Delay relative to video : -66 ms
Stream size : 82.9 MiB (3%)
Title : Mandarin [DDP5.1]
Language : Chinese
Service kind : Complete Main
Default : Yes
Forced : No

Audio #2
ID : 3
Format : AAC LC
Format/Info : Advanced Audio Codec Low Complexity
Codec ID : A_AAC-2
Duration : 45 min 15 s
Bit rate : 192 kb/s
Channel(s) : 2 channels
Channel layout : L R
Sampling rate : 44.1 kHz
Frame rate : 43.066 FPS (1024 SPF)
Compression mode : Lossy
Delay relative to video : -66 ms
Stream size : 62.1 MiB (2%)
Title : Mandarin [AAC2.0]
Language : Chinese
Default : No
Forced : No


点击图片可查看大图

软字幕无法在截图上展现,HDR版本/杜比视界版本截图会出现颜色异常,请使用支持的设备播放!



1 个附件 售价 大小 下载 时间

2024.2160p.WEB-DL.H265.HDR.60fps.DDP5.1-BlackTV[1LOU.ME].torrent 0 金币 17.52K 2058 次 1月前

#1楼
发帖时间:2024-03-01 22:31:23   |   回复数:1
linbr
一派掌门
多谢楼主分享
1月前 #2楼
游客组