Asuka601
隐世仙人♂

[更 早] [欧美] [悬疑] [WEB-4K] 惊魂记[简繁英字幕].Psycho.1960.2160p.UHD.BluRay.x265.10bit.HDR.DTS-X.7.1-SONYHD 15.02GB

-->

完整标题:惊魂记[简繁英字幕].Psycho.1960.2160p.UHD.BluRay.x265.10bit.HDR.DTS-X.7.1-SONYHD 15.02GB



◎标  题 惊魂记
◎译  名 精神病患者 / 触目惊心(港) / 精神病人
◎片  名 Psycho
◎年  代 1960
◎产  地 美国
◎类  别 悬疑 / 惊悚 / 恐怖
◎语  言 英语
◎上映日期 1960-06-16(纽约首映) / 1960-09-08(美国)
◎IMDb评分 8.5/10 (706703人评价)
◎IMDb链接 https://www.imdb.com/title/tt0054215/
◎豆瓣评分 9.0/10 (304669人评价)
◎豆瓣链接 https://movie.douban.com/subject/1293181/
◎片  长 109分钟
◎导  演 阿尔弗雷德·希区柯克 Alfred Hitchcock
◎编  剧 约瑟夫·斯蒂凡诺 Joseph Stefano
      罗伯特·布洛克 Robert Bloch
◎演  员 安东尼·博金斯 Anthony Perkins
      维拉·迈尔斯 Vera Miles
      约翰·加文 John Gavin
      珍妮特·利 Janet Leigh
      马丁·鲍尔萨姆 Martin Balsam
      约翰·麦克因泰 John McIntire
      西蒙·奥克兰 Simon Oakland
      弗兰克·艾伯森 Frank Albertson
      帕特里夏·希区柯克 Patricia Hitchcock
      沃恩·泰勒 Vaughn Taylor
      卢伦·塔特尔 Lurene Tuttle
      约翰·安德森 John Anderson
      莫特·米尔斯 Mort Mills
      吉特·卡森 Kit Carson
      维吉尼亚·格雷格 Virginia Gregg
      阿尔弗雷德·希区柯克 Alfred Hitchcock
      珍妮特·诺兰 Jeanette Nolan
      罗伯特·奥斯本 Robert Osborne
      海伦·华莱士 Helen Wallace
      沃尔特·培根 Walter Bacon
      弗朗西斯·德塞尔斯 Francis De Sales
      乔治·多克斯塔德 George Dockstader
      乔治·埃尔德雷奇 George Eldredge
      哈珀·弗莱厄蒂 Harper Flaherty
      萨姆·弗林特 Sam Flint
      弗兰克·基尔蒙德 Frank Killmond
      泰德·奈特 Ted Knight
      帕特·麦卡弗里 Pat McCaffrie
      汉斯-乔基姆·默比斯 Hans-Joachim Möbis
      弗雷德·谢威勒 Fred Scheiwiller

◎简  介
    年轻的马里恩·克兰(珍妮特·利 饰)在Phoenix工作,深受老板洛厄里(沃恩·泰勒 饰)信任。男友萨姆·卢米斯(约翰·加文 饰)在Fairvale经营一家五金店,因要替亡父还债又要支付前妻赡养费而无力再婚,只能借出差的机会偶尔来与马里恩幽会。马里恩对此感到不满,于是在周五下午趁机携四万美元公款驾车潜逃。可是马里恩的潜逃之路并不顺利:先是在出城的时候被洛厄里目击,周六一大早又被警察怀疑。花了七百美元以旧车换新车之后,马里恩继续忐忑地行驶。入夜后,天降大雨,视线模糊,无法行驶,马里恩只得将车泊入路边的贝茨汽车旅馆投宿。老板诺尔曼(安东尼·珀金斯 饰)十分友善,试图邀请马里恩到家里共进晚餐,可惜被凶恶的母亲粗暴阻止,只得将晚餐端至旅馆客厅。马里恩在客厅一边进餐一边与诺尔曼交谈,终于决定周日返回Phoenix。用餐完毕,马里恩回房沐浴。这时,一个老妇的身影突然出现在卫生间……

##### MediaInfo ######
General
Unique ID : 221156985059989616502196367781826119764 (0xA6614936E2CF003C5FA88127AD2BC854)
Complete name : Psycho.1960.2160p.UHD.BluRay.x265.10bit.HDR.DTS-X.7.1-SONYHD.mkv
Duration : 1 h 49 min
Overall bit rate mode : Variable
Overall bit rate : 19.7 Mb/s

Video
ID : 1
Format : HEVC
Format/Info : High Efficiency Video Coding
Format profile : Main [email protected]@High
HDR format : SMPTE ST 2086, HDR10 compatible
Codec ID : V_MPEGH/ISO/HEVC
Duration : 1 h 49 min
Bit rate : 16.3 Mb/s
Width : 3 840 pixels
Height : 2 076 pixels
Display aspect ratio : 1.85:1
Frame rate mode : Constant
Frame rate : 23.976 (24000/1001) FPS
Color space : YUV
Chroma subsampling : 4:2:0
Bit depth : 10 bits
Bits/(Pixel*Frame) : 0.085
Stream size : 12.4 GiB (82%)
Writing library : x265 3.5g2b25c9ba0+45:[Windows][MSVC 1926][64 bit] Yuuki 10bit+8bit+12bit
Encoding settings : rc=crf / crf=23.0000 / qcomp=0.60 / qpstep=4 / stats-write=0 / stats-read=0 / vbv-maxrate=160000 / vbv-bufsize=160000 / vbv-init=0.9 / min-vbv-fullness=50.0 / max-vbv-fullness=80.0 / crf-max=0.0 / crf-min=0.0 / no-lossless / no-cu-lossless / aq-mode=3 / aq-strength=0.70 / cbqpoffs=0 / crqpoffs=0 / ipratio=1.40 / pbratio=1.30 / psy-rd=2.00 / psy-rdoq=2.00 / deblock=-3:-3 / ref=5 / limit-refs=1 / no-limit-modes / bframes=11 / b-adapt=2 / bframe-bias=0 / b-pyramid / b-intra / weightp / weightb / min-keyint=1 / max-keyint=240 / rc-lookahead=72 / gop-lookahead=0 / scenecut=40 / hist-scenecut=0 / radl=0 / max-cu-size=64 / min-cu-size=8 / me=3 / subme=6 / merange=48 / rdoq-level=2 / rd=4 / rdpenalty=0 / dynamic-rd=0.00 / no-rd-refine / ----- / no-cutree / no-sao / no-rect / no-amp / no-open-gop / wpp / no-pmode / no-pme / no-psnr / no-ssim / nr-intra=0 / nr-inter=0 / no-constrained-intra / no-strong-intra-smoothing / max-tu-size=32 / tu-inter-depth=4 / tu-intra-depth=4 / limit-tu=0 / qg-size=32 / qpmax=69 / qpmin=0 / ----- / cpuid=1111039 / frame-threads=6 / numa-pools=+ / log-level=2 / input-csp=1 / input-res=3840x2076 / interlace=0 / level-idc=51 / high-tier=1 / uhd-bd=0 / no-allow-non-conformance / repeat-headers / aud / no-hrd / info / hash=0 / no-temporal-layers / lookahead-slices=0 / no-splice / no-intra-refresh / no-ssim-rd / signhide / no-tskip / max-merge=5 / temporal-mvp / no-frame-dup / no-hme / analyze-src-pics / no-sao-non-deblock / selective-sao=0 / early-skip / rskip / no-fast-intra / no-tskip-fast / no-splitrd-skip / zone-count=0 / no-strict-cbr / no-rc-grain / no-const-vbv / sar=0 / overscan=0 / videoformat=5 / range=0 / colorprim=9 / transfer=16 / colormatrix=9 / chromaloc=0 / display-window=0 / master-display=G(13250,34500)B(7500,3000)R(34000,16000)WP(15635,16450)L(10000000,50) / cll=1000,76 / min-luma=0 / max-luma=1023 / log2-max-poc-lsb=8 / vui-timing-info / vui-hrd-info / slices=1 / no-opt-qp-pps / no-opt-ref-list-length-pps / no-multi-pass-opt-rps / scenecut-bias=0.05 / hist-threshold=0.03 / no-opt-cu-delta-qp / no-aq-motion / hdr10 / hdr10-opt / no-dhdr10-opt / no-idr-recovery-sei / analysis-reuse-level=0 / analysis-save-reuse-level=0 / analysis-load-reuse-level=0 / scale-factor=0 / refine-intra=0 / refine-inter=0 / refine-mv=1 / refine-ctu-distortion=0 / no-limit-sao / ctu-info=0 / no-lowpass-dct / refine-analysis-type=0 / copy-pic=1 / max-ausize-factor=1.0 / no-dynamic-refine / no-single-sei / no-hevc-aq / no-svt / no-field / qp-adaptation-range=1.00 / scenecut-aware-qp=0conformance-window-offsets / right=0 / bottom=0 / decoder-max-rate=0 / no-vbv-live-multi-pass
Default : Yes
Forced : No
Color range : Limited
Color primaries : BT.2020
Transfer characteristics : PQ
Matrix coefficients : BT.2020 non-constant
Mastering display color primaries : Display P3
Mastering display luminance : min: 0.0050 cd/m2, max: 1000 cd/m2
Maximum Content Light Level : 1000 cd/m2
Maximum Frame-Average Light Level : 76 cd/m2

Audio
ID : 2
ID in the original source medium : 4352 (0x1100)
Format : DTS XLL X
Format/Info : Digital Theater Systems
Commercial name : DTS-HD Master Audio
Codec ID : A_DTS
Duration : 1 h 49 min
Bit rate mode : Variable
Bit rate : 3 376 kb/s
Channel(s) : 8 channels
Channel(s)_Original : Object Based
ChannelLayout_Original : Object Based
Sampling rate : 48.0 kHz
Frame rate : 93.750 FPS (512 SPF)
Bit depth : 24 bits
Stream size : 2.57 GiB (17%)
Language : English
Default : Yes
Forced : No
Original source medium : Blu-ray

Text #1
ID : 3
ID in the original source medium : 4773 (0x12A5)
Format : PGS
Muxing mode : zlib
Codec ID : S_HDMV/PGS
Codec ID/Info : Picture based subtitle format used on BDs/HD-DVDs
Duration : 1 h 48 min
Bit rate : 43.1 kb/s
Frame rate : 0.335 FPS
Count of elements : 2194
Stream size : 33.6 MiB (0%)
Title : chs&eng
Language : Chinese
Default : Yes
Forced : No
Original source medium : Blu-ray

Text #2
ID : 4
ID in the original source medium : 4774 (0x12A6)
Format : PGS
Muxing mode : zlib
Codec ID : S_HDMV/PGS
Codec ID/Info : Picture based subtitle format used on BDs/HD-DVDs
Duration : 1 h 48 min
Bit rate : 43.3 kb/s
Frame rate : 0.335 FPS
Count of elements : 2194
Stream size : 33.7 MiB (0%)
Title : cht&eng
Language : Chinese
Default : No
Forced : No
Original source medium : Blu-ray

Text #3
ID : 5
ID in the original source medium : 4775 (0x12A7)
Format : PGS
Muxing mode : zlib
Codec ID : S_HDMV/PGS
Codec ID/Info : Picture based subtitle format used on BDs/HD-DVDs
Duration : 1 h 48 min
Bit rate : 23.4 kb/s
Frame rate : 0.335 FPS
Count of elements : 2194
Stream size : 18.2 MiB (0%)
Title : chs
Language : Chinese
Default : No
Forced : No
Original source medium : Blu-ray

Text #4
ID : 6
ID in the original source medium : 4776 (0x12A8)
Format : PGS
Muxing mode : zlib
Codec ID : S_HDMV/PGS
Codec ID/Info : Picture based subtitle format used on BDs/HD-DVDs
Duration : 1 h 48 min
Bit rate : 23.5 kb/s
Frame rate : 0.335 FPS
Count of elements : 2194
Stream size : 18.4 MiB (0%)
Title : cht
Language : Chinese
Default : No
Forced : No
Original source medium : Blu-ray

Text #5
ID : 7
ID in the original source medium : 4768 (0x12A0)
Format : PGS
Muxing mode : zlib
Codec ID : S_HDMV/PGS
Codec ID/Info : Picture based subtitle format used on BDs/HD-DVDs
Duration : 1 h 45 min
Bit rate : 36.5 kb/s
Frame rate : 0.383 FPS
Count of elements : 2428
Stream size : 27.6 MiB (0%)
Language : English
Default : No
Forced : No
Original source medium : Blu-ray

Menu
255:153707567:16.854 : en:Chapter 01
00:02:20.681 : en:Chapter 02
00:07:00.086 : en:Chapter 03
00:11:06.624 : en:Chapter 04
00:14:00.630 : en:Chapter 05
00:17:54.198 : en:Chapter 06
00:26:33.048 : en:Chapter 07
00:34:51.005 : en:Chapter 08
00:38:35.271 : en:Chapter 09
00:46:43.592 : en:Chapter 10
00:49:37.181 : en:Chapter 11
00:58:51.860 : en:Chapter 12
01:00:26.204 : en:Chapter 13
01:04:11.054 : en:Chapter 14
01:06:41.621 : en:Chapter 15
01:12:35.475 : en:Chapter 16
01:16:41.970 : en:Chapter 17
01:17:52.832 : en:Chapter 18
01:20:29.783 : en:Chapter 19
01:23:48.314 : en:Chapter 20
01:27:05.720 : en:Chapter 21
01:32:19.240 : en:Chapter 22
01:35:21.881 : en:Chapter 23
01:41:03.515 : en:Chapter 24
01:42:08.956 : en:Chapter 25
01:47:29.525 : en:Chapter 26


部分资源为软字幕,移动端推荐播放器:MxPlayer,nPlayer,infuse ,其他播放器请自行尝试。

部分资源为软字幕,电脑端推荐播放器:PotPlayer,完美解码,KMPLAYER,其他播放器请自行尝试。

下载端推荐纯BT下载软件:qBittorrent,Bitcomet,uTorrent ,其他下载软件请自行尝试。不支持吸血迅雷。



1 个附件 售价 大小 下载 时间

Psycho.1960.2160p.UHD.BluRay.x265.10bit.HDR.DTS-X.7.1-SONYHD[1LOU.ME].torrent 0 金币 40.10K 1204 次 24天前

#1楼
发帖时间:2024-04-24 12:17:06   |   回复数:1
feung18
武林盟主
感謝樓主辛苦 !
23天前 #2楼
游客组