squallzhao
一代宗师

[2020] [欧美] [惊悚] [BD-720P] 据为私有 Exploited.2022.720p.BluRay.x264-GETiT 1.67GB

-->

帖子完整标题:据为私有 Exploited.2022.720p.BluRay.x264-GETiT 1.67GB



◎标  题 据为私有
◎片  名 Exploited
◎年  代 2020
◎产  地 美国
◎类  别 惊悚
◎语  言 英语
◎上映日期 2022-01-28(洛杉矶)
◎IMDb评分 3.8/10 (356人评价)
◎IMDb链接 https://www.imdb.com/title/tt10503988/
◎豆瓣链接 https://movie.douban.com/subject/34952445/
◎片  长 91分钟
◎导  演 乔恩·亚伯拉罕斯 Jon Abrahams
◎演  员 麦肯兹·韦加 Makenzie Vega
      谢拉·麦克康米克 Sierra McCormick
      丽亚·派普斯 Leah Pipes
      莉莎·托恩希尔 Lisa Thornhill
      斯宾塞·李斯特 Spencer List
      威廉·佩尔茨 william peltz
      汉娜·罗斯·梅 Hannah Rose May
      乔丹·弗·霍夫 Jordan Ver Hoeve
      安德鲁·马修·韦尔奇 Andrew Matthew Welch
      梅杰·道奇 Major Dodge
      Nicholas Roget-King Nicholas Roget-King

◎简  介
  A college freshman becomes obsessed with the previous owner of his school issued laptop.

Video
ID : 1
Format : AVC
Format/Info : Advanced Video Codec
Format profile : [email protected]
Format settings : CABAC / 8 Ref Frames
Format settings, CABAC : Yes
Format settings, Reference frames : 8 frames
Codec ID : V_MPEG4/ISO/AVC
Duration : 1 h 21 min
Bit rate : 2 290 kb/s
Width : 1 280 pixels
Height : 674 pixels
Display aspect ratio : 1.899
Frame rate mode : Constant
Frame rate : 23.976 (24000/1001/189150) FPS
Color space : YUV
Chroma subsampling : 4:2:0
Bit depth : 8 bits
Scan type : Progressive
Bits/(Pixel*Frame) : 0.111
Stream size : 1.30 GiB (78%)
Writing library : x264 core 164 r3101 b093bbe
Encoding settings : cabac=1 / ref=8 / deblock=1:-3:-3 / analyse=0x3:0x133 / me=umh / subme=9 / psy=1 / psy_rd=1.00:0.00 / mixed_ref=1 / me_range=16 / chroma_me=1 / trellis=2 / 8x8dct=1 / cqm=0 / deadzone=21,11 / fast_pskip=1 / chroma_qp_offset=-2 / threads=12 / lookahead_threads=1 / sliced_threads=0 / nr=0 / decimate=1 / interlaced=0 / bluray_compat=0 / constrained_intra=0 / bframes=3 / b_pyramid=2 / b_adapt=2 / b_bias=0 / direct=3 / weightb=1 / open_gop=0 / weightp=2 / keyint=250 / keyint_min=23 / scenecut=40 / intra_refresh=0 / rc_lookahead=60 / rc=crf / mbtree=1 / crf=17.0 / qcomp=0.60 / qpmin=0 / qpmax=69 / qpstep=4 / ip_ratio=1.40 / aq=3:0.80
Language : English
Default : Yes
Forced : No

Audio
ID : 2
Format : AC-3
Format/Info : Audio Coding 3
Commercial name : Dolby Digital
Codec ID : A_AC3
Duration : 1 h 21 min
Bit rate mode : Constant
Bit rate : 640 kb/s
Channel(s) : 6 channels
Channel layout : L R C LFE Ls Rs
Sampling rate : 48.0 kHz
Frame rate : 31.250 FPS (1536 SPF)
Compression mode : Lossy
Stream size : 373 MiB (22%)
Title : ac3
Language : English
Service kind : Complete Main
Default : Yes
Forced : No

Menu
00:00:00.000 : en:00:00:00.000
00:08:56.077 : en:00:08:56.077
00:26:17.993 : en:00:26:17.993
00:40:41.522 : en:00:40:41.522
00:54:25.971 : en:00:54:25.971
01:08:11.796 : en:01:08:11.796





1 个附件 售价 大小 下载 时间

Exploited.2022.720p.BluRay.x264-GETiT.torrent 0 金币 17.35K 392 次 2月前

#1楼
发帖时间:2022-11-27 18:39:02   |   回复数:0
游客组